Ссылка на приватное зеркало нашего сайта всего за 1$. Внимание количество ограничено!!!

2 сезон

iTunes

1 сезон

1

iTunes

iTunes

iTunes

1 сезон

RePack

30

ИГРА 18+

pack

ВАЖНО

!!Акция!!

Alien_RageХит недели

RePack

MK11
pack

Забери бонус

RePack

jed

!!Акция!!

Alien_Rage

RePack

fifa19

RePack

Assassins Creed: Odyssey

RePack

NEED FOR SPEED™ PAYBACK

4 сезон

9 сезон

Бесстыжие 9 сезон

Все сериалы

все сериалы на PB.wtf

RePack

FAR CRY 5
  

Есенин / Серии: 1-11 из 11 (Игорь Зайцев) [2005 г., драма, триллер, криминал, история, DVDRip] pb.wtf

Есенин через торрент pb.wtf

Раздают: 1 [ 83 KB/s ]
Размер: 5.89 GB | Добавлен: 3 года назад | Торрент скачан:233 раза
Скачать  

03-04-2012 08:50 Есенин Скачать торрент  

Есенин

Год выпуска: 2005
Страна: Россия
Жанр: драма, триллер, криминал, история
Продолжительность: 11 х ~00:51:00
Перевод: Не требуется

Режиссер: Игорь Зайцев

В ролях: Сергей Безруков, Шон Янг, Гэри Бьюзи, Ксения Раппопорт, Екатерина Гусева, Александр Михайлов, Олег Табаков, Юлия Пересильд, Валентина Теличкина, Виталий Безруков, Ирина Апексимова, Мария Голубкина, Марина Зудина, Павел Деревянко, Дмитрий Щербина, Ирина Безрукова, Сергей Астахов, Даниил Спиваковский, Андрей Руденский, Евгений Дятлов, Евгений Коряковский, Константин Хабенский, Роман Мадянов, Гоша Куценко, Андрей Краско, Александр Мезенцев, Николай Качура, Сергей Векслер, Николай Олялин, Олег Комаров, Андрей Леонов, Ольга Красько, Алексей Маклаков

Описание: Следователь МУРа, подполковник Александр Хлыстов, неожиданно получает по почте анонимное письмо. В конверт вложена фотография, на которой запечатлен поэт Сергей Есенин, только что вынутый из петли. Никакой записки, никаких объяснений. Конечно, снимку не менее 60 лет, он сильно потемнел и обветшал. Странгуляционная полоса на шее погибшего просматривается отчетливо, но опытный патологоанатом, случайно увидевший фото, сразу же замечает признаки насильственной смерти, ускользающие от глаза непосвященного. Друг Хлыстова, генерал КГБ Симагин советует не лезть в это дело: слишком много времени прошло. Да и официальной версии гибели поэта – самоубийства – никто не отменял. Но азарт сыщика берет верх. Хлыстов решает провести собственное расследование: ведь почему-то фотографию послали именно ему. Какие же причины заставляют неизвестного отправителя действовать тайно, и что произошло на самом деле в далеком 1925 году? Чем глубже подполковник погружается в изучение жизни и загадочной гибели Есенина, тем больше узнает новых фактов и таинственных обстоятельств этой истории. Теперь в его распоряжении несколько версий смерти поэта. Кажется, что разгадка уже близка. Но события принимают неожиданный оборот...



Качество: DVDRip
Формат: AVI
Видео кодек: XviD
Аудио кодек: AC3
Видео: 704x400 (16:9), 25.000 fps, ~1215 kbps avg, 0.173 bit/pixel
Аудио: 48 kHz, AC3 Dolby Digital, 2/0 (L,R) ch, ~256.00 kbps avg
General
Complete name : E:\Есенин\Есенин 01.avi
Format : AVI
Format/Info : Audio Video Interleave
File size : 548 MiB
Duration : 51mn 43s
Overall bit rate : 1 480 Kbps
Writing application : VirtualDubMod 1.6.0.0 SURROUND (build 2560/release)
Writing library : VirtualDubMod build 2560/release

Video
ID : 0
Format : MPEG-4 Visual
Format profile : Advanced Simple@L5
Format settings, BVOP : 1
Format settings, QPel : No
Format settings, GMC : No warppoints
Format settings, Matrix : Default (H.263)
Codec ID : XVID
Codec ID/Hint : XviD
Duration : 51mn 43s
Bit rate : 1 215 Kbps
Width : 704 pixels
Height : 400 pixels
Display aspect ratio : 16:9
Frame rate : 25.000 fps
Color space : YUV
Chroma subsampling : 4:2:0
Bit depth : 8 bits
Scan type : Progressive
Compression mode : Lossy
Bits/(Pixel*Frame) : 0.173
Stream size : 449 MiB (82%)
Writing library : XviD 1.1.0 (UTC 2005-11-22)

Audio
ID : 1
Format : AC-3
Format/Info : Audio Coding 3
Mode extension : CM (complete main)
Format settings, Endianness : Big
Codec ID : 2000
Duration : 51mn 43s
Bit rate mode : Constant
Bit rate : 256 Kbps
Channel count : 2 channels
Channel positions : Front: L R
Sampling rate : 48.0 KHz
Bit depth : 16 bits
Compression mode : Lossy
Stream size : 94.7 MiB (17%)
Alignment : Split accross interleaves
Interleave, duration : 40 ms (1.00 video frame)
Interleave, preload duration : 500 ms
pb.wtf



Скачать Есенин через торрент http://pic.kartinco.top/images/2000/qr4ts5nj8g.jpg Скачать фильм Есенин через торрент бесплантно в хорошем качестве Описание: Следователь МУРа, подполковник Александр Хлыстов, неожиданно получает по почте анонимное письмо. В конверт вложена фотография, на ... 10 10 15
Info! Золотая раздача, скачанное не засчитывается.
Торрент: Зарегистрирован [2017-10-04 11:59] · скачан: 233 раз
Статус: √ проверено
Размер: 5.89 GB
Как cкачать? Как скачать Есенин через торрент | qTorrent

28-11-2019 20:33  

Отключить всю рекламу на сайте

    Дорогой пользователь! Огромная просьба, поблагодарите релизера, оцените раздачу и оставьте свои комментарий, если Вы скачали Есенин через торрент бесплатно! Внесите свою лепту в развитие PiratBit!
    Комментировать посты могут только пользователи прошедшие не сложную регистрацию
    Показать сообщения:    

    Есенин через торрент
    Скачать бесплатно Есенин
    Есенин скачать торрент
    Есенин смотреть онлайн
    Cкачать фильм Есенин бесплатно
    Есенин скачать торрент в хорошем качестве
    Есенин смотреть онлайн бесплатно в хорошем качестве


    Вы не можете начинать темы
    Вы не можете отвечать на сообщения
    Вы не можете редактировать свои сообщения
    Вы не можете удалять свои сообщения
    Вы не можете голосовать в опросах
    Вы не можете прикреплять файлы к сообщениям
    Вы можете скачивать файлы