2 сезон

iTunes

MVO

1

2 сезон

iTunes

iTunes

1 сезон

RePack

30

Новинка

ВАЖНО

ИГРА 18+

pack

RePack

MK11
pack

Легкие деньги

RePack

jed

RePack

fifa19

RePack

RDR2

RePack

NEED FOR SPEED™ PAYBACK

4 сезон

9 сезон

Бесстыжие 9 сезон

Все сериалы

все сериалы на PB.wtf

RePack

FAR CRY 5

Anonymous, доброй ночи, мы не успеваем собрать деньги на оплату серверов за декабрь и январь, помогите нам пожалуйста в это трудное время. В качестве благодарности мы отключим Вам всю рекламу на сайте (укажите свой ник в строку Ваше имя)!

×
  
Magnet ссылка

[Satinjayde] Satin Jayde (Hard at work in the office) [02.04.2012 г., Stockings, Nylons, Panties, Feet, Masturbation, Upskirt, SATRip] pb.wtf

через торрент pb.wtf

Размер: 387 MB | Добавлен: 8 лет 9 мес. назад | Торрент скачан:49 раз
Скачать  

03-04-2012 09:15 Скачать торрент  

[font="sans-serif"][Satinjayde.net]
Satin Jayde
Hard at work in the office
[02.04.2012 г.]

[font="sans-serif"]
Имя актрисы: Satin Jayde
Название ролика: Hard at work in the office
Подсайт и сайт: satinjayde.net

Год производства: 2012 г.
Жанр: Stockings, Nylons, Panties, Feet, Masturbation, Upskirt
Продолжительность: 00:12:56

Качество: SATRip
Формат видео: WMV
Видео кодек: Windows Media
Аудио кодек: WMA
Видео: 25.000 fps, 4 000 Kbps, 800x450
Аудио: 192 kbps, 48 kHz, stereo (A/V) 1-pass CBR

Описание:
Jayde is hard at work in the office,
but enjoys a welcome distraction
when her lover calls on the phone..

General
Complete name : sjv132.wmv
Format : Windows Media
File size : 387 MiB
Duration : 12mn 56s
Overall bit rate mode : Constant
Overall bit rate : 4 180 Kbps
Maximum Overall bit rate : 4 227 Kbps
Encoded date : UTC 2012-03-11 17:27:40.504

Video
ID : 2
Format : VC-1
Format profile : MP@HL
Codec ID : WMV3
Codec ID/Info : Windows Media Video 9
Codec ID/Hint : WMV3
Description of the codec : Windows Media Video 9 - Professional
Duration : 12mn 56s
Bit rate mode : Constant
Bit rate : 4 000 Kbps
Width : 800 pixels
Height : 450 pixels
Display aspect ratio : 16:9
Frame rate : 25.000 fps
Bit depth : 8 bits
Scan type : Progressive
Compression mode : Lossy
Bits/(Pixel*Frame) : 0.444
Stream size : 370 MiB (96%)
Language : English (GB)

Audio
ID : 1
Format : WMA
Format version : Version 2
Codec ID : 161
Codec ID/Info : Windows Media Audio
Description of the codec : Windows Media Audio 9.2 - 192 kbps, 48 kHz, stereo (A/V) 1-pass CBR
Duration : 12mn 56s
Bit rate mode : Constant
Bit rate : 192 Kbps
Channel(s) : 2 channels
Sampling rate : 48.0 KHz
Bit depth : 16 bits
Stream size : 17.8 MiB (5%)
Language : English (GB)
pb.wtf



pack Скачать через торрент http://i29.fastpic.ru/big/2012/0403/9a/4891e2c9aaa70cb0ca974027f358f99a.jpg Скачать фильм [Satinjayde] Satin Jayde через торрент бесплантно в хорошем качестве Описание:Jayde is hard at work in the office,but enjoys a welcome distractionwhen her lover calls on the ... 4.5 10 2
Info! Золотая раздача, скачанное не засчитывается.
Торрент: Зарегистрирован [2012-04-03 09:15] · скачан: 49 раз
Статус: √ проверено
Размер: 387 MB
Как cкачать? Как скачать через торрент | UTorrent

28-11-2019 20:33  

Отключить всю рекламу на сайте

    Дорогой пользователь! Огромная просьба, поблагодарите релизера, оцените раздачу и оставьте свои комментарий, если Вы скачали через торрент бесплатно! Внесите свою лепту в развитие PiratBit!
    Комментировать посты могут только пользователи прошедшие не сложную регистрацию
    Показать сообщения:    

    через торрент
    Скачать бесплатно
    скачать торрент
    смотреть онлайн
    Cкачать фильм бесплатно
    скачать торрент в хорошем качестве
    смотреть онлайн бесплатно в хорошем качестве


    Вы не можете начинать темы
    Вы не можете отвечать на сообщения
    Вы не можете редактировать свои сообщения
    Вы не можете удалять свои сообщения
    Вы не можете голосовать в опросах
    Вы не можете прикреплять файлы к сообщениям
    Вы можете скачивать файлы