1 сезон

3 сезон

iTunes

1

Line

MVO

iTunes

13

1 сезон

RePack

30

Deluxe

pack

Лицензия

ВАЖНО

ИГРА 18+

pack

RePack

MK11

RePack

jed

RePack

fifa19

RePack

RDR2

RePack

NEED FOR SPEED™ PAYBACK

4 сезон

9 сезон

Бесстыжие 9 сезон

Все сериалы

все сериалы на PB.wtf

RePack

FAR CRY 5

Anonymous, доброй ночи, мы катастрофически не успеваем собрать деньги на оплату серверов, помогите нам пожалуйста 5,10,15р., для нас важна любая помощь . В качестве благодарности мы отключим Вам всю рекламу на сайте (укажите свой ник в строку Ваше имя)!

×
  
Magnet ссылка

Боги арены / Kingdom of Gladiators (Стефано Милла) [2011 г., фэнтези, боевик, приключения, DVD5] MVO + Original + Sub (Rus) pb.wtf

Боги арены через торрент pb.wtf

Размер: 3.72 GB | Добавлен: 9 лет 3 мес. назад | Торрент скачан:62 раза
Скачать  

04-04-2012 13:16 Боги арены Скачать торрент  

Боги арены / Kingdom of Gladiators

Год выпуска: 2011
Страна: США
Жанр: фэнтези, боевик, приключения
Продолжительность: 01:21:25
Перевод: Профессиональный (многоголосый, закадровый) [Лицензия]
  • Режиссер: Стефано Милла
  • Продюссер: Риккардо Де Пало, Davide Tromba, Stefania Busca
  • Сценарий: Стефано Милла, Марко Виола

  • Бюджет: $3 000 000

В ролях: Маурицио Корильяно, Шарон Фрайер, Лерой Кинкейд, Сьюзи Ли, Брайан Мерфи, Мэтт Полински, Энни Сошиал

Описание: Они выходят на арену, где смерть — лучшее развлечение для толпы. Они должны бороться за выживание и усвоить жестокие правила мира гладиаторов. Рожденные войной, они не ведают страха, не знают любви, не чувствуют слабости и не испытывают жалости. Они вступают в схватку, чтобы победить или умереть.
  • Качество: DVD5
  • Формат: DVD Video
  • Видео кодек: MPEG2
  • Аудио кодек: AC3
  • Видео: MPEG 2, 720x576 (16:9), 25.000 fps, 8 500 Kbps (0.497 bit/pixel)
  • Аудио#1: AC-3, 48.0 KHz, 6 ch, 384 Kbps, CBR (Русский)
  • Аудио#2: AC-3, 48.0 KHz, 2 ch, 192 Kbps, CBR (Русский)
  • Аудио#3: AC-3, 48.0 KHz, 2 ch, 192 Kbps, CBR (Английский)
  • Субтитры: Русские
--> Перейти к DVDRip <--
Скриншоты меню

скриншот   скриншот   скриншот   скриншот  

Скриншоты

скриншот   скриншот   скриншот   скриншот  

Код:

Title: Bogi.areny.2011.DVD-5
Size: 3.72 Gb ( 3 898 924,00 KBytes ) - DVD-5
Enabled regions: 1, 2, 3, 4, 5, 6, 7, 8

VTS_01 :
  Play Length: 00:00:20
  Video: PAL 4:3 (720x576) VBR
  Audio:
      Russian, AC3, 2/0 (L,R) ch, 192 kbps, Delay 0 mSec


VTS_02 :
  Play Length: 01:21:25
  Video: PAL 16:9 (720x576) VBR, Auto Pan&Scan, Auto Letterboxed
  Audio:
      Russian, AC3, 3/2 (L,C,R,SL,SR)+LFE ch, 384 kbps, Delay 0 mSec
      Russian, AC3, 2/0 (L,R) ch, 192 kbps, Delay 0 mSec
      English, AC3, 2/0 (L,R) ch, 192 kbps, Delay 0 mSec

  Subtitles:
      Russian

* Menus Information *

VIDEO_TS Menu
Video:
      PAL 4:3 (720x576) VBR
English Language Unit :
      Title Menu

VTS_01 Menu
Video:
      PAL 4:3 (720x576) VBR
Audio:
      Not specified (Dolby AC3, 2 ch)
English Language Unit :
      Root Menu
      Chapter (PTT) Menu

VTS_02 Menu
Video:
      PAL 4:3 (720x576) VBR
English Language Unit :
      Root Menu
      Subpicture Menu
      Audio Menu
      Chapter (PTT) Menu


Код:

Общее
Полное имя                               : E:\Bogi.areny.2011.DVD-5\VTS_02_1.VOB
Формат                                   : MPEG-PS
Размер файла                             : 1024 Мбайт
Продолжительность                        : 23 м.
Режим общего битрейта                    : Переменный
Общий поток                              : 6040 Кбит/сек

Видео
Идентификатор                            : 224 (0xE0)
Формат                                   : MPEG Video
Версия формата                           : Version 2
Профиль формата                          : Main@Main
Параметр BVOP формата                    : Да
Параметр матрицы формата                 : Выборочная
Продолжительность                        : 23 м.
Вид битрейта                             : Переменный
Битрейт                                  : 5151 Кбит/сек
Максимальный битрейт                     : 8500 Кбит/сек
Ширина                                   : 720 пикселей
Высота                                   : 576 пикселей
Соотношение сторон                       : 16:9
Частота кадров                           : 25,000 кадров/сек
Стандарт вещания                         : PAL
Цветовое пространство                    : YUV
Субдискретизация насыщенности            : 4:2:0
Битовая глубина                          : 8 бит
Тип развёртки                            : Чересстрочная
Порядок развёртки                        : Верхнее поле первое
Метод сжатия                             : С потерями
Бит/(Пиксели*Кадры)                      : 0.497
Размер потока                            : 873 Мбайт (85%)
Основные цвета                           : BT.470-2 System B, BT.470-2 System G
Характеристики трансфера                 : BT.470-2 System B, BT.470-2 System G
Коэффициенты матрицы                     : SMPTE 170M

Аудио #1
Идентификатор                            : 189 (0xBD)-128 (0x80)
Формат                                   : AC-3
Формат/Информация                        : Audio Coding 3
Расширение режима                        : CM (complete main)
Режим смешивания                         : DVD-Video
Продолжительность                        : 23 м.
Вид битрейта                             : Постоянный
Битрейт                                  : 384 Кбит/сек
Каналы                                   : 6 каналов
Расположение каналов                     : Front: L C R, Side: L R, LFE
Частота                                  : 48,0 КГц
Битовая глубина                          : 16 бит
Метод сжатия                             : С потерями
Задержка видео                           : -40 мс.
Размер потока                            : 65,1 Мбайт (6%)

Аудио #2
Идентификатор                            : 189 (0xBD)-129 (0x81)
Формат                                   : AC-3
Формат/Информация                        : Audio Coding 3
Расширение режима                        : CM (complete main)
Режим смешивания                         : DVD-Video
Продолжительность                        : 23 м.
Вид битрейта                             : Постоянный
Битрейт                                  : 192 Кбит/сек
Каналы                                   : 2 канала
Расположение каналов                     : Front: L R
Частота                                  : 48,0 КГц
Битовая глубина                          : 16 бит
Метод сжатия                             : С потерями
Задержка видео                           : -40 мс.
Размер потока                            : 32,5 Мбайт (3%)

Аудио #3
Идентификатор                            : 189 (0xBD)-130 (0x82)
Формат                                   : AC-3
Формат/Информация                        : Audio Coding 3
Расширение режима                        : CM (complete main)
Режим смешивания                         : DVD-Video
Продолжительность                        : 23 м.
Вид битрейта                             : Постоянный
Битрейт                                  : 192 Кбит/сек
Каналы                                   : 2 канала
Расположение каналов                     : Front: L R
Частота                                  : 48,0 КГц
Битовая глубина                          : 16 бит
Метод сжатия                             : С потерями
Задержка видео                           : -40 мс.
Размер потока                            : 32,5 Мбайт (3%)

Меню

pb.wtf



Скачать Боги арены через торрент https://pic1.kartinco.top/images/2000/xa9lfji9ui.png Скачать фильм Боги арены через торрент бесплантно в хорошем качестве Описание: Они выходят на арену, где смерть — лучшее развлечение для толпы. Они должны бороться за выживание и усвоить жестокие правила мира ... 10 10 1
Info! Золотая раздача, скачанное не засчитывается.
Торрент: Зарегистрирован [2012-04-04 13:16] · скачан: 62 раз
Статус: √ проверено
Размер: 3.72 GB
Как cкачать? Как скачать Боги арены через торрент | UTorrent

% Раздел Тема Автор DL S | L
T Фильмы (мультфильмы) cо спонсором показа (Новинки AVI/MKV) [ 1.37 GB ] Боги арены: Турнир / Kingdom of Gladiators the Tournament [2017 DVDRip] MVO [официальный звук] bober100 Скачать
1 | 0
Фильмы 2011 [ 1.36 GB ] Боги арены / Kingdom of Gladiators [2011 DVDRip] MVO shuller Скачать
1 | 0

28-11-2019 20:33  

Отключить всю рекламу на сайте

    Дорогой пользователь! Огромная просьба, поблагодарите релизера, оцените раздачу и оставьте свои комментарий, если Вы скачали Боги арены через торрент бесплатно! Внесите свою лепту в развитие PiratBit!
    Комментировать посты могут только пользователи прошедшие не сложную регистрацию
    Показать сообщения:    

    Боги арены через торрент
    Скачать бесплатно Боги арены
    Боги арены скачать торрент
    Боги арены смотреть онлайн
    Cкачать фильм Боги арены бесплатно
    Боги арены скачать торрент в хорошем качестве
    Боги арены смотреть онлайн бесплатно в хорошем качестве


    Вы не можете начинать темы
    Вы не можете отвечать на сообщения
    Вы не можете редактировать свои сообщения
    Вы не можете удалять свои сообщения
    Вы не можете голосовать в опросах
    Вы не можете прикреплять файлы к сообщениям
    Вы можете скачивать файлы