Ссылка на приватное зеркало нашего сайта всего за 1$. Внимание количество ограничено!!!

2 сезон

iTunes

1 сезон

1

2 сезон

2 сезон

iTunes

1 сезон

RePack

30

Ultimate

ВАЖНО

ИГРА 18+

pack

RePack

MK11
pack

Забери бонус

RePack

jed

!!Акция!!

Alien_Rage

RePack

fifa19

RePack

Assassins Creed: Odyssey

RePack

NEED FOR SPEED™ PAYBACK

4 сезон

9 сезон

Бесстыжие 9 сезон

Все сериалы

все сериалы на PB.wtf

RePack

FAR CRY 5
  

Быть человеком / Being Human / Сезон: 1 (Серии: 1-6 из 6) (Тоби Вайтхаус) [2008 г., драма, ужасы, комедия, HDRip, Профессиональный (многоголосый закадровый) + Оригинал] pb.wtf

Быть человеком через торрент pb.wtf

Размер: 3.44 GB | Добавлен: 8 лет 7 мес. назад | Торрент скачан:8 раз
Скачать  

06-04-2012 11:40 Быть человеком Скачать торрент  

Быть человеком / Being Human

Год выпуска: 2008
Страна: Великобритания
Жанр: драма, ужасы, комедия
Продолжительность: 6 х ~00:45:00
Перевод: Профессиональный (многоголосый закадровый) + Оригинал

Режиссер: Тоби Вайтхаус

В ролях: Рассел Тоуви, Ленора Кричлоу, Эйдан Тернер, Джейсон Уоткинс, Дилан Браун, Анабель Шолей, Синед Кинэн, Пол Каси и др.

Описание: Великобританские кинематографисты сняли сериал «Быть человеком» по заказу телеканала ВВC Three о жизни трех нелюдей – призрака, оборотня и вампира. Пилотная серия была показана 18 февраля 2008 года, без продолжения. Жанр сериала задумывался как комедия, ужасы, драма. Лишь через полтора года было возобновлено производство, и с 2009 года сериал вышел в полноценный эфир, с заменой некоторых актеров. С этих пор он стал быстро завоевывать популярность среди телезрителей и стал одни из самых популярных шоу на ВВС. Второй сезон транслируется с 10 января 2010 года и его популярность подняла вопрос о съемках третьего сезона в 2011 году. Молодые актеры прочувствовали каждый свою роль, и отменно перевоплотились в героев, которых играют в этом сериале. Во время просмотра так увлекаешься всем происходящим, что кажется всё это наяву, а не на экране. Замечательный саундтрек, захватывающий сюжет сериала заставляет зрителя вспоминать о нем и после просмотра серий.
События разворачиваются в Великобритании в городе Бристоль. В одном доме живут трое: вампир, оборотень и привидение. Вампир пытается не питаться человеческой кровью, но у него это не очень-то и получается, оборотень жутко мучается из-за того, во что превращается в полнолуние, и каждый раз пытается провести его так, чтобы никто не пострадал, привидение же немного странное и чуток взбалмошное создание, которое убирается в доме, готовит чай, и его даже могут видеть некоторые люди.

Качество: HDRip
Формат: AVI
Видео кодек: XviD
Аудио кодек: MP3
Видео: 720х400 (1.80), 25 fps, XviD MPEG-4, ~1065 kbps, 0.15 bit/pixel
Аудио#1: 48 kHz, MPEG Layer 3, 2 ch, ~192 kbps |rus|
Аудио#2: 48 kHz, MPEG Layer 3, 2 ch, ~192 kbps |eng|

Общее
Формат : AVI
Формат/Информация : Audio Video Interleave
Размер файла : 600 Мбайт
Продолжительность : 57 м.
Общий поток : 1466 Кбит/сек
Программа кодирования : VirtualDubMod 1.5.10.2 (build 2540/release)
Библиотека кодирования : VirtualDubMod build 2540/release

Видео
Идентификатор : 0
Формат : MPEG-4 Visual
Профиль формата : Advanced Simple@L5
Параметр BVOP формата : 2
Параметр QPel формата : Нет
Параметр GMC формата : Без точки перехода
Параметр матрицы формата : Default (H.263)
Режим смешивания : Сжатый битовый поток
Идентификатор кодека : XVID
Идентификатор кодека/Подсказка : XviD
Продолжительность : 57 м.
Битрейт : 1059 Кбит/сек
Ширина : 720 пикс.
Высота : 400 пикс.
Соотношение сторон : 16:9
Частота кадров : 25,000 кадр/сек
Цветовое пространство : YUV
Подвыборка цветности : 4:2:0
Битовая глубина : 8 бит
Тип развёртки : Прогрессивная
Метод сжатия : С потерями
Бит/(Пиксели*Кадры) : 0.147
Размер потока : 433 Мбайт (72%)
Библиотека кодирования : XviD 1.2.1 (UTC 2008-12-04)

Аудио #1
Идентификатор : 1
Формат : MPEG Audio
Версия формата : Version 1
Профиль формата : Layer 3
Режим : Joint stereo
Идентификатор кодека : 55
Идентификатор кодека/Подсказка : MP3
Продолжительность : 57 м.
Вид битрейта : Постоянный
Битрейт : 192 Кбит/сек
Каналы : 2 канала
Частота : 48,0 КГц
Метод сжатия : С потерями
Размер потока : 78,6 Мбайт (13%)
Выравнивание : Соединение по промежуткам
Продолжительность промежутка : 40 мс. (1,00 видеокадр)
Время предзагрузки промежутка : 504 ms

Аудио #2
Идентификатор : 2
Формат : MPEG Audio
Версия формата : Version 1
Профиль формата : Layer 3
Режим : Joint stereo
Расширение режима : MS Stereo
Идентификатор кодека : 55
Идентификатор кодека/Подсказка : MP3
Продолжительность : 57 м.
Вид битрейта : Переменный
Битрейт : 192 Кбит/сек
Каналы : 2 канала
Частота : 48,0 КГц
Метод сжатия : С потерями
Размер потока : 80,8 Мбайт (13%)
pb.wtf



Скачать Быть человеком через торрент http://i31.fastpic.ru/big/2011/1010/a0/0784430e671fc6f17f2f344ecc1187a0.jpg Скачать фильм Быть человеком через торрент бесплантно в хорошем качестве Описание: Великобританские кинематографисты сняли сериал «Быть человеком» по заказу телеканала ВВC Three о жизни трех нелюдей – призрака, ... 5 10 2
Info! Золотая раздача, скачанное не засчитывается.
Торрент: Зарегистрирован [2012-04-06 11:40] · скачан: 8 раз
Статус: √ проверено
Размер: 3.44 GB
Как cкачать? Как скачать Быть человеком через торрент | qTorrent

28-11-2019 20:33  

Отключить всю рекламу на сайте

    Дорогой пользователь! Огромная просьба, поблагодарите релизера, оцените раздачу и оставьте свои комментарий, если Вы скачали Быть человеком через торрент бесплатно! Внесите свою лепту в развитие PiratBit!
    Комментировать посты могут только пользователи прошедшие не сложную регистрацию
    Показать сообщения:    

    Быть человеком через торрент
    Скачать бесплатно Быть человеком
    Быть человеком скачать торрент
    Быть человеком смотреть онлайн
    Cкачать фильм Быть человеком бесплатно
    Быть человеком скачать торрент в хорошем качестве
    Быть человеком смотреть онлайн бесплатно в хорошем качестве


    Вы не можете начинать темы
    Вы не можете отвечать на сообщения
    Вы не можете редактировать свои сообщения
    Вы не можете удалять свои сообщения
    Вы не можете голосовать в опросах
    Вы не можете прикреплять файлы к сообщениям
    Вы можете скачивать файлы