Ссылка на приватное зеркало нашего сайта всего за 1$. Внимание количество ограничено!!!

2 сезон

iTunes

1 сезон

1

2 сезон

2 сезон

iTunes

1 сезон

RePack

30

Новинка

ВАЖНО

ИГРА 18+

pack

RePack

MK11
pack

Забери бонус

RePack

jed

!!Акция!!

Alien_Rage

RePack

fifa19

RePack

Assassins Creed: Odyssey

RePack

NEED FOR SPEED™ PAYBACK

4 сезон

9 сезон

Бесстыжие 9 сезон

Все сериалы

все сериалы на PB.wtf

RePack

FAR CRY 5
  

Быть человеком / Being Human / Сезон: 1 (Серии: 1-13 из 13) (Паоло Барзмен, Адам Кэйн, Чарльз Бинами,) [2011 г., ужасы, фэнтези,, WEB-DLRip, Профессиональный (многоголосый закадровый)] pb.wtf

Быть человеком через торрент pb.wtf

Размер: 6.06 GB | Добавлен: 8 лет 7 мес. назад | Торрент скачан:346 раз
Скачать  

06-04-2012 11:49 Быть человеком Скачать торрент  

Быть человеком / Being Human

Год выпуска: 2011
Страна: Канада
Жанр: ужасы, фэнтези,
Продолжительность: 13 х ~00:44:00
Перевод: Профессиональный (многоголосый закадровый) - LostFilm

Режиссер: Паоло Барзмен, Адам Кэйн, Чарльз Бинами,

В ролях: Сэм Уитвер, Миган Рат, Сэм Хантингтон, Марк Пеллегрино, Сара Аллен, Джанпаоло Венута, Анджела Галуппо, Кристен Хагер, Винсент Леклерк, Элисон Лодер и др.

Описание: Сериал рассказывает о троих соседях: вампире, оборотне и привидении. Вампир не слишком успешно пытается обходиться без людей, оборотень мучается из-за своих превращений в полнолуние, а привидение немного странное взбалмошное создание.

Качество: WEB-DLRip
Формат: AVI
Видео кодек: XviD
Аудио кодек: MP3
Видео: 704x400 (16:9), 23.976 fps, ~1350 kbps, ~0.200 bit/pixel
Аудио: 48 kHz, 2 ch, ~128 kbps

Общее
Формат : AVI
Формат/Информация : Audio Video Interleave
Размер файла : 443 Мбайт
Продолжительность : 44 м.
Общий поток : 1391 Кбит/сек
Программа кодирования : Nandub v1.0rc2
Библиотека кодирования : Nandub build 1853/release

Видео
Идентификатор : 0
Формат : MPEG-4 Visual
Профиль формата : Advanced Simple@L5
Параметр BVOP формата : 1
Параметр QPel формата : Нет
Параметр GMC формата : Без точки перехода
Параметр матрицы формата : Выборочная
Идентификатор кодека : XVID
Идентификатор кодека/Подсказка : XviD
Продолжительность : 44 м.
Битрейт : 1251 Кбит/сек
Ширина : 704 пикс.
Высота : 400 пикс.
Соотношение сторон : 16:9
Частота кадров : 23,976 кадр/сек
Цветовое пространство : YUV
Подвыборка цветности : 4:2:0
Битовая глубина : 8 бит
Тип развёртки : Прогрессивная
Метод сжатия : С потерями
Бит/(Пиксели*Кадры) : 0.185
Размер потока : 398 Мбайт (90%)
Библиотека кодирования : XviD 64

Аудио
Идентификатор : 1
Формат : MPEG Audio
Версия формата : Version 1
Профиль формата : Layer 3
Режим : Joint stereo
Расширение режима : MS Stereo
Идентификатор кодека : 55
Идентификатор кодека/Подсказка : MP3
Продолжительность : 44 м.
Вид битрейта : Постоянный
Битрейт : 128 Кбит/сек
Каналы : 2 канала
Частота : 48,0 КГц
Метод сжатия : С потерями
Задержка видео : 1 мс.
Размер потока : 40,8 Мбайт (9%)
Выравнивание : Соединение по промежуткам
Продолжительность промежутка : 24 мс. (0,58 видеокадр)
Время предзагрузки промежутка : 481 ms
pb.wtf



Скачать Быть человеком через торрент http://i26.fastpic.ru/big/2011/0825/2a/f6432d5b872468c1be47fdbf92e57a2a.jpg Скачать фильм Быть человеком через торрент бесплантно в хорошем качестве Описание: Сериал рассказывает о троих соседях: вампире, оборотне и привидении. Вампир не слишком успешно пытается обходиться без людей, ... 10 10 4
Info! Золотая раздача, скачанное не засчитывается.
Торрент: Зарегистрирован [2012-04-06 11:49] · скачан: 346 раз
Статус: √ проверено
Размер: 6.06 GB
Как cкачать? Как скачать Быть человеком через торрент | qTorrent

% Раздел Тема Автор DL S | L
Зарубежные сериалы [ 18.84 GB ] Быть человеком / Being Human US / Сезон: 4 / Серии: 1-13 из 13 [2014 WEB-DL 720p] MVO [DD LostFilm 5.1] + Original Messa-fan Скачать
1 | 0
Зарубежные сериалы [ 3.44 GB ] Быть человеком / Being Human / Сезон: 1 [2008 HDRip + Оригинал] markfiter Скачать
1 | 0
Зарубежные сериалы [ 5.72 GB ] Быть человеком / Being Human US/ Сезон: 1 [2011 WEB-DLRip] lyokaa Скачать
1 | 0

28-11-2019 20:33  

Отключить всю рекламу на сайте

31-03-2013 00:03 Быть человеком Скачать торрент  

скукотень - первых двух серий хватило все слишком предсказуемо и нудно вобщим неинтиресно.pb.wtf



    Дорогой пользователь! Огромная просьба, поблагодарите релизера, оцените раздачу и оставьте свои комментарий, если Вы скачали Быть человеком через торрент бесплатно! Внесите свою лепту в развитие PiratBit!
    Комментировать посты могут только пользователи прошедшие не сложную регистрацию
    Показать сообщения:    

    Быть человеком через торрент
    Скачать бесплатно Быть человеком
    Быть человеком скачать торрент
    Быть человеком смотреть онлайн
    Cкачать фильм Быть человеком бесплатно
    Быть человеком скачать торрент в хорошем качестве
    Быть человеком смотреть онлайн бесплатно в хорошем качестве


    Вы не можете начинать темы
    Вы не можете отвечать на сообщения
    Вы не можете редактировать свои сообщения
    Вы не можете удалять свои сообщения
    Вы не можете голосовать в опросах
    Вы не можете прикреплять файлы к сообщениям
    Вы можете скачивать файлы