2 сезон

iTunes

MVO

1

2 сезон

iTunes

iTunes

1 сезон

RePack

30

Новинка

ВАЖНО

ИГРА 18+

pack

RePack

MK11
pack

Легкие деньги

RePack

jed

RePack

fifa19

RePack

RDR2

RePack

NEED FOR SPEED™ PAYBACK

4 сезон

9 сезон

Бесстыжие 9 сезон

Все сериалы

все сериалы на PB.wtf

RePack

FAR CRY 5

Anonymous, доброй ночи, мы не успеваем собрать деньги на оплату серверов за декабрь и январь, помогите нам пожалуйста в это трудное время. В качестве благодарности мы отключим Вам всю рекламу на сайте (укажите свой ник в строку Ваше имя)!

×
  
Magnet ссылка

[AndreaNobiliProductions] Amanda Mantovani (The T-master and the slave) [06.04.2012 г., Tranny, Shemale dominate, Fetish, Bareback, All Sex, SiteRip] pb.wtf

через торрент pb.wtf

Размер: 734 MB | Добавлен: 8 лет 9 мес. назад | Торрент скачан:72 раза
Скачать  

06-04-2012 15:23 Скачать торрент  

[font="sans-serif"][AndreaNobiliProductions.com]
Amanda Mantovani
The T-master and the slave
[06.04.2012 г.]

[font="sans-serif"]
Год производства: 2012 г.
Жанр: Tranny, Shemale dominate, Fetish, Bareback, All Sex
Продолжительность: 00:44:00

Студия: AndreaNobiliProductions.com
В ролях: Amanda Mantovani

Качество видео: SiteRip
Формат видео: MP4
Видео кодек: H.264/AVC
Аудио кодек: AAC
Видео: 25.000 fps, 2 200 Kbps, 720x480
Аудио: 128 Kbps, 2 channels, 48.0 KHz

Описание:
This modern slave obeys to his master's orders:
takes dildo, insults, and, overall, her cock

General
Complete name : The T-master and the slave.mp4
Format : MPEG-4
Format profile : Base Media
Codec ID : isom
File size : 734 MiB
Duration : 44mn 0s
Overall bit rate : 2 333 Kbps
Movie name : euro14_3.mp4
Writing application : Lavf52.108.0

Video
ID : 1
Format : AVC
Format/Info : Advanced Video Codec
Format profile : High@L3.1
Format settings, CABAC : Yes
Format settings, ReFrames : 4 frames
Codec ID : avc1
Codec ID/Info : Advanced Video Coding
Duration : 44mn 0s
Bit rate : 2 200 Kbps
Width : 720 pixels
Height : 480 pixels
Display aspect ratio : 3:2
Frame rate mode : Constant
Frame rate : 25.000 fps
Standard : PAL
Color space : YUV
Chroma subsampling : 4:2:0
Bit depth : 8 bits
Scan type : Progressive
Bits/(Pixel*Frame) : 0.255
Stream size : 692 MiB (94%)
Writing library : x264 core 115 r1947 b5a8ad7
Encoding settings : cabac=1 / ref=3 / deblock=1:0:0 / analyse=0x3:0x113 / me=hex / subme=7 / psy=1 / psy_rd=1.00:0.00 / mixed_ref=1 / me_range=16 / chroma_me=1 / trellis=1 / 8x8dct=1 / cqm=0 / deadzone=21,11 / fast_pskip=1 / chroma_qp_offset=-2 / threads=4 / sliced_threads=0 / nr=0 / decimate=1 / interlaced=0 / bluray_compat=0 / constrained_intra=0 / bframes=3 / b_pyramid=2 / b_adapt=1 / b_bias=0 / direct=1 / weightb=1 / open_gop=0 / weightp=2 / keyint=250 / keyint_min=25 / scenecut=40 / intra_refresh=0 / rc_lookahead=40 / rc=2pass / mbtree=1 / bitrate=2200 / ratetol=1.0 / qcomp=0.60 / qpmin=0 / qpmax=51 / qpstep=4 / cplxblur=20.0 / qblur=0.5 / ip_ratio=1.40 / aq=1:1.00

Audio
ID : 2
Format : AAC
Format/Info : Advanced Audio Codec
Format profile : LC
Codec ID : 40
Duration : 44mn 0s
Bit rate mode : Constant
Bit rate : 128 Kbps
Channel(s) : 2 channels
Channel positions : Front: L R
Sampling rate : 48.0 KHz
Compression mode : Lossy
Delay relative to video : -2s 2ms
Stream size : 40.3 MiB (5%)
pb.wtf



pack Скачать через торрент http://i27.fastpic.ru/big/2012/0330/af/1845a3bc48a38a36df131da116e9ceaf.jpg Скачать фильм [AndreaNobiliProductions] Amanda Mantovani через торрент бесплантно в хорошем качестве Описание:This modern slave obeys to his master's orders:takes dildo, insults, and, overall, her ... 5 10 1
Info! Золотая раздача, скачанное не засчитывается.
Торрент: Зарегистрирован [2012-04-06 15:23] · скачан: 72 раз
Статус: √ проверено
Размер: 734 MB
Как cкачать? Как скачать через торрент | UTorrent

28-11-2019 20:33  

Отключить всю рекламу на сайте

    Дорогой пользователь! Огромная просьба, поблагодарите релизера, оцените раздачу и оставьте свои комментарий, если Вы скачали через торрент бесплатно! Внесите свою лепту в развитие PiratBit!
    Комментировать посты могут только пользователи прошедшие не сложную регистрацию
    Показать сообщения:    

    через торрент
    Скачать бесплатно
    скачать торрент
    смотреть онлайн
    Cкачать фильм бесплатно
    скачать торрент в хорошем качестве
    смотреть онлайн бесплатно в хорошем качестве


    Вы не можете начинать темы
    Вы не можете отвечать на сообщения
    Вы не можете редактировать свои сообщения
    Вы не можете удалять свои сообщения
    Вы не можете голосовать в опросах
    Вы не можете прикреплять файлы к сообщениям
    Вы можете скачивать файлы