Ссылка на приватное зеркало всего за 1$. Внимание количество ограничено!!!

OK

1+1

iTunes

мы

OK

1

WEB-DLRip

Джокер

Пифагор

Ведьмак / The Witcher сериал

Лицензия

ПШазам

ОК

Оно 2

iTunes

30
pack

Вам бонус

ВАЖНО

!!Акция!!

Alien_RageХит недели

RePack

Resident Evil 21

ИГРА 18+

pack

RePack

jed

RePack

fifa19

RePack

Assassins Creed: Odyssey

RePack

NEED FOR SPEED™ PAYBACK

4 сезон

9 сезон

Бесстыжие 9 сезон

Все сериалы

все сериалы на PB.wtf

RePack

FAR CRY 5
  

Начало / Inception (Кристофер Нолан) [2010, фантастика, боевик, триллер, драма, детектив, HDRip-AVC] DUB / от R.G. nICE Films pb.wtf

Начало через торрент pb.wtf

Размер: 2.18 GB | Добавлен: 7 лет 9 мес. назад | Торрент скачан:2573 раза
Скачать  

06-04-2012 22:56 Начало Скачать торрент  

[font="Monotype Corsiva"]Начало / Inception
«Твой разум - место преступления.»


[font="Monotype Corsiva"]
Год выпуска: 2010
Страна: США, Великобритания
Жанр: фантастика, боевик, триллер, драма, детектив
Продолжительность: 02:28:07
Перевод: Профессиональный (дублированый)
Субтитры: Русские форсированные (на японскую речь)

Режиссер: Кристофер Нолан

В ролях: Леонардо ДиКаприо, Джозеф Гордон-Левитт, Эллен Пейдж, Том Харди, Кен Ватанабе, Дилип Рао, Киллиан Мёрфи, Том Беренджер, Марион Котийяр, Пит Постлетуэйт

Описание: Кобб — талантливый вор, лучший из лучших в опасном искусстве извлечения: он крадет ценные секреты из глубин подсознания во время сна, когда человеческий разум наиболее уязвим. Редкие способности Кобба сделали его ценным игроком в привычном к предательству мире промышленного шпионажа, но они же превратили его в извечного беглеца и лишили всего, что он когда-либо любил.
И вот у Кобба появляется шанс исправить ошибки. Его последнее дело может вернуть все назад, но для этого ему нужно совершить невозможное — инициацию. Вместо идеальной кражи Кобб и его команда спецов должны будут провернуть обратное. Теперь их задача — не украсть идею, а внедрить ее. Если у них получится, это и станет идеальным преступлением.
Но никакое планирование или мастерство не могут подготовить команду к встрече с опасным противником, который, кажется, предугадывает каждый их ход. Врагом, увидеть которого мог бы лишь Кобб.


|

Качество: HDRip-AVC (Rip by Demonessa)
Исходник: BDRip 720p
Формат: MKV
Видео кодек: H.264
Аудио кодек: AC3
Видео: H.264, 1024*432, 23,976 кадр/сек, 1662 Кбит/сек, 0.157 Бит/(Пиксели*Кадры)
Аудио: AC3, 448 Кбит/сек, 6 каналов, 48,0 КГц

Код:

---[NoImage] x264 [info]: frame I:3240  Avg QP:16.18  size: 43719  PSNR Mean Y:47.93 U:52.50 V:52.60 Avg:48.93 Global:48.43
---[NoImage] x264 [info]: frame P:95362 Avg QP:19.29  size: 13762  PSNR Mean Y:45.88 U:52.58 V:52.60 Avg:47.02 Global:46.39
---[NoImage] x264 [info]: frame B:114495 Avg QP:21.67  size:  3424  PSNR Mean Y:46.11 U:52.57 V:52.54 Avg:47.21 Global:46.20
---[NoImage] x264 [info]: consecutive B-frames: 19.5% 30.2%  9.8% 14.0% 18.2%  6.8%  0.1%  0.0%  0.0%  0.0%  1.4%

Код:

Общее
Уникальный идентификатор         : 231256388835983627951383166646933838409 (0xADFA5C43C3C61687B003ECA30DA0DA49)
Полное имя                       : E:\Video\R.G. nICE Films (Rips by Demonessa)\Начало Rip by Demonessa.mkv
Формат                           : Matroska
Размер файла                     : 2,18 Гбайт
Продолжительность                : 2 ч. 28 м.
Общий поток                      : 2111 Кбит/сек
Дата кодирования                 : UTC 2012-03-13 19:57:32
Программа кодирования            : mkvmerge v5.2.1 ('A Far Off Place') built on Jan  2 2012 23:21:10
Библиотека кодирования           : libebml v1.2.3 + libmatroska v1.3.0

Видео
Идентификатор                    : 1
Формат                           : AVC
Формат/Информация                : Advanced Video Codec
Профиль формата                  : High@L4.1
Параметр CABAC формата           : Да
Параметр ReFrames формата        : 8 кадры
Идентификатор кодека             : V_MPEG4/ISO/AVC
Продолжительность                : 2 ч. 28 м.
Битрейт                          : 1662 Кбит/сек
Ширина                           : 1024 пикс.
Высота                           : 432 пикс.
Соотношение сторон               : 2,35:1
Частота кадров                   : 23,976 кадр/сек
Цветовое пространство            : YUV
Подвыборка цветности             : 4:2:0
Битовая глубина                  : 8 бит
Тип развёртки                    : Прогрессивная
Бит/(Пиксели*Кадры)              : 0.157
Размер потока                    : 1,68 Гбайт (77%)
Заголовок                        : Rip by Demonessa
Библиотека кодирования           : x264 core 115 r1995 c1e60b9
Настройки программы              : cabac=1 / ref=8 / deblock=1:-2:-1 / analyse=0x3:0x113 / me=umh / subme=10 / psy=1 / psy_rd=1.00:0.00 / mixed_ref=1 / me_range=32 / chroma_me=1 / trellis=2 / 8x8dct=1 / cqm=0 / deadzone=21,11 / fast_pskip=1 / chroma_qp_offset=-2 / threads=4 / sliced_threads=0 / nr=0 / decimate=1 / interlaced=0 / bluray_compat=0 / constrained_intra=0 / bframes=10 / b_pyramid=2 / b_adapt=1 / b_bias=0 / direct=1 / weightb=1 / open_gop=0 / weightp=2 / keyint=250 / keyint_min=23 / scenecut=40 / intra_refresh=0 / rc_lookahead=40 / rc=2pass / mbtree=1 / bitrate=1662 / ratetol=1.0 / qcomp=0.70 / qpmin=10 / qpmax=51 / qpstep=4 / cplxblur=20.0 / qblur=0.5 / ip_ratio=1.40 / aq=1:1.00
Язык                             : English

Аудио
Идентификатор                    : 2
Формат                           : AC-3
Формат/Информация                : Audio Coding 3
Расширение режима                : CM (complete main)
Идентификатор кодека             : A_AC3
Продолжительность                : 2 ч. 28 м.
Вид битрейта                     : Постоянный
Битрейт                          : 448 Кбит/сек
Канал(ы)                         : 6 канала(ов)
Расположение каналов             : Front: L C R, Side: L R, LFE
Частота                          : 48,0 КГц
Битовая глубина                  : 16 бит
Метод сжатия                     : С потерями
Размер потока                    : 475 Мбайт (21%)
Заголовок                        : Дубляж (Blu-ray Disc)
Язык                             : Russian

Текст
Идентификатор                    : 3
Формат                           : UTF-8
Идентификатор кодека             : S_TEXT/UTF8
Идентификатор кодека/Информация  : UTF-8 Plain Text
Заголовок                        : Форсированные (Blu-ray Disc)
Язык                             : Russian

скриншот  скриншот  скриншот  скриншот  скриншот  скриншот  скриншот  скриншот  
pb.wtf



Скачать Начало через торрент http://s002.youpic.su/pictures/1333742400/40d650720ff31aea5aadf8b53399e79b.png Скачать фильм Начало через торрент бесплантно в хорошем качестве Описание: Кобб — талантливый вор, лучший из лучших в опасном искусстве извлечения: он крадет ценные секреты из глубин подсознания во время ... 9.9 10 45
Info! Золотая раздача, скачанное не засчитывается.
Торрент: Зарегистрирован [2012-04-06 22:56] · скачан: 2 573 раз
Статус: √ проверено
Размер: 2.18 GB
Как cкачать? Как скачать Начало через торрент | qTorrent

28-11-2019 20:33  

Отключить всю рекламу на сайте

14-06-2013 17:49 Начало Скачать торрент  

Спасибо за фильм, кто скачал, помогите с раздачей, скорость очень маленькая.pb.wtf



09-11-2017 17:48 Начало Скачать торрент  

Поддайте скоростиpb.wtf



    Дорогой пользователь! Огромная просьба, поблагодарите релизера, оцените раздачу и оставьте свои комментарий, если Вы скачали Начало через торрент бесплатно! Внесите свою лепту в развитие PiratBit!
    Комментировать посты могут только пользователи прошедшие не сложную регистрацию
    Показать сообщения:    

    Начало через торрент
    Скачать бесплатно Начало
    Начало скачать торрент
    Начало смотреть онлайн
    Cкачать фильм Начало бесплатно
    Начало скачать торрент в хорошем качестве
    Начало смотреть онлайн бесплатно в хорошем качестве


    Вы не можете начинать темы
    Вы не можете отвечать на сообщения
    Вы не можете редактировать свои сообщения
    Вы не можете удалять свои сообщения
    Вы не можете голосовать в опросах
    Вы не можете прикреплять файлы к сообщениям
    Вы можете скачивать файлы