Мега распродажа FORZA HORIZON 4 ULTIMATE+ВСЕ DLC+ОНЛАЙН всего за 499р. 349 руб. (супер цена). Внимание количество ограничено!!!

Лицензия

30

iTunes

мы

iTunes

1

1 сезон

Чернобыль

1 сезон

Ральф против интернета

MVO

Покемон. Детектив Пикачу

8 сезон

Игра престолов

iTunes

1+1

ИГРА 18+

pack

ВАЖНО

!!Акция!!

Alien_RageХит недели

RePack

Resident Evil 21
pack

RePack

Metro:Exodus

!!Акция!!

Alien_Rage

RePack

fifa19

RePack

Assassins Creed: Odyssey

RePack

NEED FOR SPEED™ PAYBACK

3 сезон

9 сезон

Бесстыжие 9 сезон

Все сериалы

все сериалы на PB.wtf

RePack

FAR CRY 5
Ребята, катастрофически не хватает 2730р. для оплаты серверов за МАЙ (всвязи с блокировками трафик упал в 3 раза), 1-2р., выручайте.
  

Невидимая сторона / The Blind Side (Джон Ли Хэнкок) [2009, драма, биография, спорт, HDRip-AVC] MVO / от R.G. nICE Films pb.wtf

Невидимая сторона через торрент pb.wtf

Качают: 1 [ 0 KB/s ]
Размер: 2.18 GB | Добавлен: 7 лет 2 мес. назад | Торрент скачан:134 раза
Скачать  

06-04-2012 23:15 Невидимая сторона Скачать торрент  

[font="Monotype Corsiva"]Невидимая сторона / The Blind Side
«Based on the extraordinary true story»


[font="Monotype Corsiva"]
Год выпуска: 2009
Страна: США
Жанр: драма, биография, спорт
Продолжительность: 02:08:33
Перевод: Профессиональный (многоголосый, закадровый)

Режиссер: Джон Ли Хэнкок

В ролях: Сандра Буллок, Куинтон Аарон, Тим МакГроу, Джей Хед, Лили Коллинз, Рэй МакКиннон, Ким Диккенс, Адриан Ленокс, Кэти Бейтс, Катрин Дайер

Описание: Благополучная белая семья берет к себе толстого, неграмотного бездомного негритянского подростка и помогает стать ему спортивной звездой и поступить в университет.

|

Качество: HDRip-AVC (Rip by Demonessa)
Исходник: BDRip 1080p
Формат: MKV
Видео кодек: H.264
Аудио кодек: AC3
Видео: H.264, 1024*576, 23,976 кадр/сек, 2039 Кбит/сек, 0.144 Бит/(Пиксели*Кадры)
Аудио: AC3, 384 Кбит/сек, 6 каналов, 48,0 КГц

Код:

-[NoImage] x264 [info]: frame I:2339  Avg QP:17.12  size: 71939  PSNR Mean Y:46.22 U:50.39 V:50.58 Avg:47.20 Global:46.74
-[NoImage] x264 [info]: frame P:74777 Avg QP:19.91  size: 17502  PSNR Mean Y:44.12 U:49.27 V:49.64 Avg:45.22 Global:44.67
-[NoImage] x264 [info]: frame B:107811 Avg QP:21.75  size:  4532  PSNR Mean Y:43.67 U:48.75 V:49.16 Avg:44.79 Global:44.31
-[NoImage] x264 [info]: consecutive B-frames: 12.9% 28.6% 14.1% 20.5% 21.4%  2.0%  0.2%  0.0%  0.0%  0.0%  0.3%

Код:

Общее
Уникальный идентификатор         : 254246495354231045948266094604059807772 (0xBF461807972D576F9D230CC4C712101C)
Полное имя                       : E:\Video\R.G. nICE Films (Rips by Demonessa)\Невидимая сторона Rip by Demonessa.mkv
Формат                           : Matroska
Размер файла                     : 2,18 Гбайт
Продолжительность                : 2 ч. 9 м.
Общий поток                      : 2407 Кбит/сек
Дата кодирования                 : UTC 2012-03-13 19:35:49
Программа кодирования            : mkvmerge v5.2.1 ('A Far Off Place') built on Jan  2 2012 23:21:10
Библиотека кодирования           : libebml v1.2.3 + libmatroska v1.3.0

Видео
Идентификатор                    : 1
Формат                           : AVC
Формат/Информация                : Advanced Video Codec
Профиль формата                  : High@L4.1
Параметр CABAC формата           : Да
Параметр ReFrames формата        : 8 кадры
Идентификатор кодека             : V_MPEG4/ISO/AVC
Продолжительность                : 2 ч. 9 м.
Битрейт                          : 2039 Кбит/сек
Ширина                           : 1024 пикс.
Высота                           : 576 пикс.
Соотношение сторон               : 16:9
Частота кадров                   : 23,976 кадр/сек
Цветовое пространство            : YUV
Подвыборка цветности             : 4:2:0
Битовая глубина                  : 8 бит
Тип развёртки                    : Прогрессивная
Бит/(Пиксели*Кадры)              : 0.144
Размер потока                    : 1,79 Гбайт (82%)
Заголовок                        : Rip by Demonessa
Библиотека кодирования           : x264 core 115 r1995 c1e60b9
Настройки программы              : cabac=1 / ref=8 / deblock=1:-2:-1 / analyse=0x3:0x113 / me=umh / subme=9 / psy=1 / psy_rd=1.00:0.00 / mixed_ref=1 / me_range=32 / chroma_me=1 / trellis=2 / 8x8dct=1 / cqm=0 / deadzone=21,11 / fast_pskip=1 / chroma_qp_offset=-2 / threads=4 / sliced_threads=0 / nr=0 / decimate=1 / interlaced=0 / bluray_compat=0 / constrained_intra=0 / bframes=10 / b_pyramid=2 / b_adapt=1 / b_bias=0 / direct=1 / weightb=1 / open_gop=0 / weightp=2 / keyint=250 / keyint_min=23 / scenecut=40 / intra_refresh=0 / rc_lookahead=40 / rc=2pass / mbtree=1 / bitrate=2039 / ratetol=1.0 / qcomp=0.70 / qpmin=10 / qpmax=51 / qpstep=4 / cplxblur=20.0 / qblur=0.5 / ip_ratio=1.40 / aq=1:1.00
Язык                             : English

Аудио
Идентификатор                    : 2
Формат                           : AC-3
Формат/Информация                : Audio Coding 3
Расширение режима                : CM (complete main)
Идентификатор кодека             : A_AC3
Продолжительность                : 2 ч. 9 м.
Вид битрейта                     : Постоянный
Битрейт                          : 384 Кбит/сек
Канал(ы)                         : 6 канала(ов)
Расположение каналов             : Front: L C R, Side: L R, LFE
Частота                          : 48,0 КГц
Битовая глубина                  : 16 бит
Метод сжатия                     : С потерями
Размер потока                    : 356 Мбайт (16%)
Заголовок                        : MVO
Язык                             : Russian

http://screenshotcomparison.com/comparison/73558
скриншот  скриншот  скриншот  скриншот  скриншот  скриншот  скриншот  скриншот  скриншот  скриншот  
pb.wtf



Скачать Невидимая сторона через торрент http://s002.youpic.su/pictures/1333742400/8da982f7baf464bac840b050941869c6.png Скачать фильм Невидимая сторона через торрент бесплантно в хорошем качестве Описание: Благополучная белая семья берет к себе толстого, неграмотного бездомного негритянского подростка и помогает стать ему спортивной ... 9.5 10 2
Info! Золотая раздача, скачанное не засчитывается.
Торрент: Зарегистрирован [2012-04-06 23:15] · скачан: 134 раз
Статус: √ проверено
Размер: 2.18 GB
Как cкачать? Как скачать Невидимая сторона через торрент | qTorrent



Последний раз редактировалось: Demonessa (2012-04-12 02:06), всего редактировалось 1 раз


>> Регистрируемся здесь <<






Отзывы и комментарии о схеме читаем и пишем здесь: ---> Отзывы и комментарии о схеме

Новые благодарочки в телеграм довольных пользователей:
скриншот   скриншот   скриншот   скриншот   скриншот

07-04-2012 00:15 Невидимая сторона Скачать торрент  

отличный фильм, даже несколько раз пересматривал!pb.wtf



    Дорогой пользователь! Огромная просьба, поблагодарите релизера, оцените раздачу и оставьте свои комментарий, если Вы скачали Невидимая сторона через торрент бесплатно! Внесите свою лепту в развитие PiratBit!
    Комментировать посты могут только пользователи прошедшие не сложную регистрацию
    Показать сообщения:    

    Невидимая сторона через торрент
    Скачать бесплатно Невидимая сторона
    Невидимая сторона скачать торрент
    Невидимая сторона смотреть онлайн
    Cкачать фильм Невидимая сторона бесплатно
    Невидимая сторона скачать торрент в хорошем качестве
    Невидимая сторона смотреть онлайн бесплатно в хорошем качестве


    Вы не можете начинать темы
    Вы не можете отвечать на сообщения
    Вы не можете редактировать свои сообщения
    Вы не можете удалять свои сообщения
    Вы не можете голосовать в опросах
    Вы не можете прикреплять файлы к сообщениям
    Вы можете скачивать файлы