Ссылка на приватное зеркало нашего сайта всего за 1$. Внимание количество ограничено!!!

2 сезон

iTunes

1 сезон

1

2 сезон

2 сезон

iTunes

1 сезон

RePack

30

Новинка

ВАЖНО

ИГРА 18+

pack

RePack

MK11
pack

Забери бонус

RePack

jed

!!Акция!!

Alien_Rage

RePack

fifa19

RePack

Assassins Creed: Odyssey

RePack

NEED FOR SPEED™ PAYBACK

4 сезон

9 сезон

Бесстыжие 9 сезон

Все сериалы

все сериалы на PB.wtf

RePack

FAR CRY 5
  

Родители / Parenthood / Сезон: 1 (Серии: 1-13 из 13) (Адам Дэвидсон, Майкл Энглер) [2010 г., комедия, драма, WEB-DLRip, Любительский (двухголосый) + оригинал ] pb.wtf

Родители через торрент pb.wtf

Размер: 5.22 GB | Добавлен: 8 лет 7 мес. назад | Торрент скачан:6 раз
Скачать  

07-04-2012 09:01 Родители Скачать торрент  

Родители / Parenthood

Год выпуска: 2010
Страна: США
Жанр: комедия, драма
Продолжительность: 13 х ~00:50:00
Перевод: Любительский (двухголосый) + оригинал

Режиссер: Адам Дэвидсон, Майкл Энглер

В ролях: Питер Краузе (Peter Krause), Лорен Грэхэм (Lauren Graham), Дакс Шепард (Dax Shepard), Эрика Кристэн (Erika Christensen), Моника Поттер (Monica Potter)

Описание: Саре Брейверман с двумя детьми — дочерью Амбер и сыном Дрю из-за материальных трудностей пришлось переехать из Фресно в домик родителей в калифорнийском Беркли — отца Зика и матери Камилы, которые тоже испытывают сложности с финансами. Там до сих пор живут ее сестра с братьями — Джулия, Кросби и Адам, каждый из которых борется со своими собственными проблемами.

Качество: WEB-DLRip
Формат: AVI
Видео кодек: XviD
Аудио кодек: MP3
Видео: 624x352 (1.77:1), 23.976 fps, XviD MPEG-4 ~1256 kbps avg, 0.24 bit/pixel
Аудио#1: 48 kHz, MPEG Layer 3, 2 ch, ~128.00 kbps avg |rus|
Аудио#2: 48 kHz, MPEG Layer 3, 2 ch, ~129.39 kbps avg |eng|

Общее
Формат : AVI
Формат/Информация : Audio Video Interleave
Размер файла : 548 Мбайт
Продолжительность : 50 м.
Общий поток : 1533 Кбит/сек
Программа кодирования : VirtualDubMod 1.5.10.2 (build 2540/release)
Библиотека кодирования : VirtualDubMod build 2540/release

Видео
Идентификатор : 0
Формат : MPEG-4 Visual
Профиль формата : Advanced Simple@L5
Параметр BVOP формата : 2
Параметр QPel формата : Да
Параметр GMC формата : Без точки перехода
Параметр матрицы формата : Default (MPEG)
Режим смешивания : Сжатый битовый поток
Идентификатор кодека : XVID
Идентификатор кодека/Подсказка : XviD
Продолжительность : 50 м.
Битрейт : 1258 Кбит/сек
Ширина : 624 пикс.
Высота : 352 пикс.
Соотношение сторон : 16:9
Частота кадров : 23,976 кадр/сек
Цветовое пространство : YUV
Подвыборка цветности : 4:2:0
Битовая глубина : 8 бит
Тип развёртки : Прогрессивная
Метод сжатия : С потерями
Бит/(Пиксели*Кадры) : 0.239
Размер потока : 450 Мбайт (82%)
Библиотека кодирования : XviD 1.2.1 (UTC 2008-12-04)

Аудио #1
Идентификатор : 1
Формат : MPEG Audio
Версия формата : Version 1
Профиль формата : Layer 3
Режим : Joint stereo
Расширение режима : MS Stereo
Идентификатор кодека : 55
Идентификатор кодека/Подсказка : MP3
Продолжительность : 50 м.
Вид битрейта : Постоянный
Битрейт : 128 Кбит/сек
Каналы : 2 канала
Частота : 48,0 КГц
Метод сжатия : С потерями
Размер потока : 45,8 Мбайт (8%)
Выравнивание : Соединение по промежуткам
Продолжительность промежутка : 42 мс. (1,00 видеокадр)
Время предзагрузки промежутка : 504 ms

Аудио #2
Идентификатор : 2
Формат : MPEG Audio
Версия формата : Version 1
Профиль формата : Layer 3
Режим : Joint stereo
Расширение режима : MS Stereo
Идентификатор кодека : 55
Идентификатор кодека/Подсказка : MP3
Продолжительность : 50 м.
Вид битрейта : Переменный
Битрейт : 128 Кбит/сек
Каналы : 2 канала
Частота : 48,0 КГц
Метод сжатия : С потерями
Размер потока : 46,3 Мбайт (8%)
Выравнивание : Соединение по промежуткам
Продолжительность промежутка : 24 мс. (0,58 видеокадр)
Время предзагрузки промежутка : 142 ms
Библиотека кодирования : LAME3.90.
Настройки программы : -m j -V 4 -q 2 -lowpass 17.6 --abr 128
pb.wtf



Скачать Родители через торрент http://i27.fastpic.ru/big/2011/1229/bd/64e87dbd2e0850ddaeb67525b13196bd.png Скачать фильм Родители через торрент бесплантно в хорошем качестве Описание: Саре Брейверман с двумя детьми — дочерью Амбер и сыном Дрю из-за материальных трудностей пришлось переехать из Фресно в домик ... 5 10 1
Info! Золотая раздача, скачанное не засчитывается.
Торрент: Зарегистрирован [2012-04-07 09:01] · скачан: 6 раз
Статус: √ проверено
Размер: 5.22 GB
Как cкачать? Как скачать Родители через торрент | qTorrent

28-11-2019 20:33  

Отключить всю рекламу на сайте

    Дорогой пользователь! Огромная просьба, поблагодарите релизера, оцените раздачу и оставьте свои комментарий, если Вы скачали Родители через торрент бесплатно! Внесите свою лепту в развитие PiratBit!
    Комментировать посты могут только пользователи прошедшие не сложную регистрацию
    Показать сообщения:    

    Родители через торрент
    Скачать бесплатно Родители
    Родители скачать торрент
    Родители смотреть онлайн
    Cкачать фильм Родители бесплатно
    Родители скачать торрент в хорошем качестве
    Родители смотреть онлайн бесплатно в хорошем качестве


    Вы не можете начинать темы
    Вы не можете отвечать на сообщения
    Вы не можете редактировать свои сообщения
    Вы не можете удалять свои сообщения
    Вы не можете голосовать в опросах
    Вы не можете прикреплять файлы к сообщениям
    Вы можете скачивать файлы