новый адрес
Ссылка на приватное зеркало всего за 1$. Внимание количество ограничено!!!

iTunes

1+1

iTunes

мы

WEB-DL

1

iTunes

Чернобыль

iTunes

Ральф против интернета

Лицензия

ПШазам

Лицензия

Оно 2

Лицензия

30
pack

Вам бонус

ВАЖНО

!!Акция!!

Alien_RageХит недели

RePack

Resident Evil 21

ИГРА 18+

pack

RePack

jed

!!Акция!!

Alien_Rage

RePack

fifa19

RePack

Assassins Creed: Odyssey

RePack

NEED FOR SPEED™ PAYBACK

3 сезон

9 сезон

Бесстыжие 9 сезон

Все сериалы

все сериалы на PB.wtf

RePack

FAR CRY 5
Ребята, катастрофически не хватает 1900р. для оплаты серверов за Октябрь (всвязи с блокировками трафик упал в 3 раза), 1-2р., выручайте.
  

Сияние / The Shining (Стэнли Кубрик) [1980 г., ужасы, драма, BDRip, Профессиональный ( многоголосый, закадровый ) + Оригинал] pb.wtf

Сияние через торрент pb.wtf

Раздают: 2 [ 0 KB/s ]
Размер: 2.18 GB | Добавлен: 7 лет 8 мес. назад | Торрент скачан:1126 раз
Скачать  

08-04-2012 04:23 Сияние Скачать торрент  

Сияние / The Shining

Год выпуска: 1980
Страна: США
Жанр: ужасы, драма
Продолжительность: 01:59:38
Перевод: Профессиональный ( многоголосый, закадровый ) + Оригинал

Режиссер: Стэнли Кубрик
Продюссер: Роберт Фрайер, Ян Харлан, Мэри Лиа Джонсон
Сценарий: Стэнли Кубрик, Дайан Джонсон, Стивен Кинг

Бюджет: $19 000 000

лицам до 17 лет обязательно присутствие взрослого
Мировой рейтинг IMDB 8.50 (259 317)


В ролях: Джек Николсон, Шелли Дювалл, Дэнни Ллойд, Скэтмэн Крозерс, Бэрри Нельсон, Филип Стоун, Джо Тёркел, Энн Джексон, Тони Бертон, Лия Белдам

Описание: Главный герой — Джек Торренс — приехал в элегантный уединенный отель, чтобы поработать смотрителем во время мертвого сезона вместе со своей женой и сыном. Торренс здесь раньше никогда не бывал. Или это не совсем так? Ответ лежит во мраке, сотканном из преступного кошмара.

Качество: BDRip
Формат: AVI
Видео кодек: XviD
Аудио кодек: AC3
Видео: 720x400 (1.80:1), 23.976 fps, XviD build 50 ~1835 kbps avg, 0.27 bit/pixel
Аудио#1: 48 kHz, AC3 Dolby Digital, 3/2 (L,C,R,l,r) + LFE ch, ~384.00 kbps avg - русский
Аудио#2: 48 kHz, AC3 Dolby Digital, 3/2 (L,C,R,l,r) + LFE ch, ~384.00 kbps avg - оригинальная дорожка
Релиз от: HQCLUB
Американский писатель-фантаст Стивен Кинг написал «Сияние» в 1977 году, а уже в 1979 г. Стэнли Кубрик, заинтересованный произведением, приступает к съемкам.
Первоначально на роль Джека Торренса режиссер рассматривал популярных американских актеров:Роберта Де Ниро и Робина Уильямса, но затем остановил свой выбор на Джеке Николсоне, который блестяще справился с поставленной задачей. Стивен Кинг же был настроен против Николсона, посчитав его «слишком сумасшедшим» для главного героя «Сияния». Актриса Шелли Дюваль также не понравилась писателю: он придерживался точки зрения, что Шелли совершенно не вписывается в образ Венди Торренс. Кубрик остался непреклонен в своем выборе.
На съемках Стэнли Кубрик держал Шелли в постоянном стрессовом состоянии: жестко критиковал ее актерскую игру и добивался от нее полного погружения в роль. Позднее актриса призналась, что это было очень тяжело, но конечный результат стоил потраченных сил.
На роль маленького Дэнни пробовалось почти пять тысяч претендентов, но в итоге выбор пал на Дэнни Ллойда. Режиссер скрывал от мальчика, что он снимается в фильме ужасов и уверял, что это «психологическая драма». Актер узнал правду лишь в 10 лет, когда впервые посмотрел отредактированную версию картины.
Для погружения в нужное состояние маэстро показывал съемочной группе фильм «Голова-ластик» не менее эпатажного и загадочного американского режиссераДэвида Линча (David Lynch).
Английская студия Elstree Studios была полностью занята декорациями к картине «Сияние». Лабиринт из живой изгороди, который можно видеть в фильме рядом с отелем «Оверлук», был построен на аэродроме возле студии. Панорамные сцены отеля снимались в отеле Timberline Lodge, в Орегоне. Декорации к фильму, особенно «Зал Колорадо», являются одними из самых масштабных в истории кино. После «Сияния» их использовал Стивен Спилберг при съемках не менее знаменитой картины «Индиана Джонс: В поисках утраченного ковчега».
Знаменитую сцену «Сияния», где из-за дверей лифта хлещут потоки крови, снимали в течение года, прежде чем режиссер был удовлетворен качеством и достоверностью эпизода.
«Сияние» стало самой прибыльной экранизацией книг Стивена Кинга: при бюджете в 19 млн. $ картина собрала почти 45 млн. $ в мировом кинопрокате. Премьера в США состоялась 23 мая 1980 г.

Общее
Полное имя : D:\Раздачи\Сияние.avi
Формат : AVI
Формат/Информация : Audio Video Interleave
Профиль формата : OpenDML
Размер файла : 2,18 Гбайт
Продолжительность : 1 ч. 59 м.
Общий поток : 2610 Кбит/сек
Название фильма : Siyanie.1980.DUAL.BDRip.XviD.AC3.-HQCLUB
Режиссёр : Orbit
Программа кодирования : VirtualDubMod 1.5.10.2 (build 2542/release)
Правообладатель : hqclub.net
Примечание : 24.08.2010

Видео
Идентификатор : 0
Формат : MPEG-4 Visual
Профиль формата : Advanced Simple@L5
Параметр BVOP формата : 1
Параметр QPel формата : Нет
Параметр GMC формата : Без точки перехода
Параметр матрицы формата : Выборочная
Идентификатор кодека : XVID
Идентификатор кодека/Подсказка : XviD
Продолжительность : 1 ч. 59 м.
Битрейт : 1824 Кбит/сек
Ширина : 720 пикселей
Высота : 400 пикселей
Соотношение сторон : 16:9
Частота кадров : 23,976 кадра/сек
Цветовое пространство : YUV
Субдискретизация насыщенности : 4:2:0
Битовая глубина : 8 бит
Тип развёртки : Прогрессивная
Метод сжатия : С потерями
Бит/(Пиксели*Кадры) : 0.264
Размер потока : 1,52 Гбайт (70%)
Библиотека кодирования : XviD 1.2.1 (UTC 2008-12-04)

Аудио #1
Идентификатор : 1
Формат : AC-3
Формат/Информация : Audio Coding 3
Расширение режима : CM (complete main)
Параметр Endianness формата : Big
Идентификатор кодека : 2000
Продолжительность : 1 ч. 59 м.
Вид битрейта : Постоянный
Битрейт : 384 Кбит/сек
Каналы : 6 каналов
Расположение каналов : Front: L C R, Side: L R, LFE
Частота : 48,0 КГц
Битовая глубина : 16 бит
Метод сжатия : С потерями
Размер потока : 329 Мбайт (15%)
Выравнивание : Разделение по промежуткам
Продолжительность промежутка : 42 мс. (1,00 видеокадр)
Время предзагрузки промежутка : 500 мс.

Аудио #2
Идентификатор : 2
Формат : AC-3
Формат/Информация : Audio Coding 3
Расширение режима : CM (complete main)
Параметр Endianness формата : Big
Идентификатор кодека : 2000
Продолжительность : 1 ч. 59 м.
Вид битрейта : Постоянный
Битрейт : 384 Кбит/сек
Каналы : 6 каналов
Расположение каналов : Front: L C R, Side: L R, LFE
Частота : 48,0 КГц
Битовая глубина : 16 бит
Метод сжатия : С потерями
Размер потока : 329 Мбайт (15%)
Выравнивание : Разделение по промежуткам
Продолжительность промежутка : 42 мс. (1,00 видеокадр)
Время предзагрузки промежутка : 500 мс.

pb.wtf



Скачать Сияние через торрент http://pic.kartinco.top/images/2000/8uqfcj63ig.jpg Скачать фильм Сияние через торрент бесплантно в хорошем качестве Описание: Главный герой — Джек Торренс — приехал в элегантный уединенный отель, чтобы поработать смотрителем во время мертвого сезона ... 10 10 29
Info! Золотая раздача, скачанное не засчитывается.
Торрент: Зарегистрирован [2012-04-08 04:23] · скачан: 1 126 раз
Статус: √ проверено
Размер: 2.18 GB
Как cкачать? Как скачать Сияние через торрент | qTorrent



Последний раз редактировалось: snouman82 (2012-04-08 08:19), всего редактировалось 2 раз(а)

28-11-2019 20:33  

Отключить всю рекламу на сайте

08-04-2012 06:19 Сияние Скачать торрент  

ооо ПРИКОЛЬНЫЙ КАДР ИЗ ФИЛЬМА,

pb.wtf



    Дорогой пользователь! Огромная просьба, поблагодарите релизера, оцените раздачу и оставьте свои комментарий, если Вы скачали Сияние через торрент бесплатно! Внесите свою лепту в развитие PiratBit!
    Комментировать посты могут только пользователи прошедшие не сложную регистрацию
    Показать сообщения:    

    Сияние через торрент
    Скачать бесплатно Сияние
    Сияние скачать торрент
    Сияние смотреть онлайн
    Cкачать фильм Сияние бесплатно
    Сияние скачать торрент в хорошем качестве
    Сияние смотреть онлайн бесплатно в хорошем качестве


    Вы не можете начинать темы
    Вы не можете отвечать на сообщения
    Вы не можете редактировать свои сообщения
    Вы не можете удалять свои сообщения
    Вы не можете голосовать в опросах
    Вы не можете прикреплять файлы к сообщениям
    Вы можете скачивать файлы