Ссылка на приватное зеркало нашего сайта всего за 1$. Внимание количество ограничено!!!

2 сезон

iTunes

1 сезон

1

iTunes

iTunes

iTunes

1 сезон

RePack

30

ИГРА 18+

pack

ВАЖНО

!!Акция!!

Alien_RageХит недели

RePack

MK11
pack

Забери бонус

RePack

jed

!!Акция!!

Alien_Rage

RePack

fifa19

RePack

Assassins Creed: Odyssey

RePack

NEED FOR SPEED™ PAYBACK

4 сезон

9 сезон

Бесстыжие 9 сезон

Все сериалы

все сериалы на PB.wtf

RePack

FAR CRY 5
  

Выход через сувенирную лавку / Exit Through the Gift Shop (Бэнкси) [2010 г., документальный, комедия, BDRip (720p), Профессиональный (многоголосый)] pb.wtf

Выход через сувенирную лавку через торрент pb.wtf

Размер: 4.6 GB | Добавлен: 8 лет 6 мес. назад | Торрент скачан:44 раза
Скачать  

08-04-2012 09:56 Выход через сувенирную лавку Скачать торрент  

Выход через сувенирную лавку / Exit Through the Gift Shop
«The incredible true story of how the world's greatest Street Art movie was never made...»
[font=Fixedsys]Год выпуска
: 2010
[font=Fixedsys]Страна: США
[font=Fixedsys]Жанр: документальный, комедия
[font=Fixedsys]Продолжительность:87 мин.
[font=Fixedsys]Перевод: Профессиональный (многоголосый, закадровый)

[font=Fixedsys]Режиссер: Бэнкси
[font=Fixedsys]Продюссер:Холли Кашинг, Джейми Д’Круз, Джеймс Гей-Рис
[font=Fixedsys]Сценарий: -

[font=Fixedsys]Бюджет: $3 291 250

лицам до 17 лет обязательно присутствие взрослого


[font=Fixedsys]В ролях: Бэнкси, Тьерри Гетта, Дебора Гетта, месье Андре, Зеус, Шепард Фейри, Рон Инглиш, Каледония Керри, Борф, Баффмонстр

[font=Fixedsys]Описание: Картина рассказывает невероятную, но правдивую историю о том, как эксцентричный буржуа французского происхождения, проживающий в Лос-Анджелесе, превратившись в кинодокументалиста, попытался отыскать Бэнкси и подружиться с ним.

[font=Fixedsys]Качество: BDRip (720p)
[font=Fixedsys]Формат: MKV
[font=Fixedsys]Видео кодек:H.264
[font=Fixedsys]Аудио кодек:AC3
[font=Fixedsys]Видео: 1280x720, 23.976 fps, 5749 kbps
[font=Fixedsys]Аудио#1: АС3, 6 ch, 384 kbps, 48.0 KHz | Русский
[font=Fixedsys]Аудио#2: DTS, 6 ch, 1510 kbps, 48.0 KHz | Английский
[font=Fixedsys]General
Format : Matroska
Format version : Version 1
File size : 4.60 GiB
Duration : 1h 26mn
Overall bit rate : 7 644 Kbps
Encoded date : UTC 2010-09-07 20:24:40
Writing application : mkvmerge v2.1.0 ('Another Place To Fall') built on Aug 19 2007 13:40:07
Writing library : libebml v0.7.7 + libmatroska v0.8.1

Video
ID : 1
Format : AVC
Format/Info : Advanced Video Codec
Format profile : High@L4.1
Format settings, CABAC : Yes
Format settings, ReFrames : 5 frames
Codec ID : V_MPEG4/ISO/AVC
Duration : 1h 26mn
Bit rate : 5 749 Kbps
Width : 1 280 pixels
Height : 720 pixels
Display aspect ratio : 16:9
Frame rate : 23.976 fps
Color space : YUV
Chroma subsampling : 4:2:0
Bit depth : 8 bits
Scan type : Progressive
Bits/(Pixel*Frame) : 0.260
Stream size : 3.37 GiB (73%)
Writing library : x264 core 104 r1698 c41b8f0
Encoding settings : cabac=1 / ref=5 / deblock=1:0:0 / analyse=0x3:0x133 / me=umh / subme=7 / psy=1 / psy_rd=1.00:0.00 / mixed_ref=1 / me_range=16 / chroma_me=1 / trellis=1 / 8x8dct=1 / cqm=0 / deadzone=21,11 / fast_pskip=0 / chroma_qp_offset=-2 / threads=12 / sliced_threads=0 / nr=0 / decimate=1 / interlaced=0 / constrained_intra=0 / bframes=3 / b_pyramid=2 / b_adapt=1 / b_bias=0 / direct=1 / weightb=1 / open_gop=0 / weightp=2 / keyint=250 / keyint_min=23 / scenecut=40 / intra_refresh=0 / rc_lookahead=40 / rc=2pass / mbtree=1 / bitrate=5749 / ratetol=1.0 / qcomp=0.60 / qpmin=10 / qpmax=51 / qpstep=4 / cplxblur=20.0 / qblur=0.5 / ip_ratio=1.40 / aq=1:1.00
Language : English
Default : Yes
Forced : No

Audio #1
ID : 2
Format : AC-3
Format/Info : Audio Coding 3
Mode extension : CM (complete main)
Codec ID : A_AC3
Duration : 1h 26mn
Bit rate mode : Constant
Bit rate : 384 Kbps
Channel(s) : 6 channels
Channel positions : Front: L C R, Side: L R, LFE
Sampling rate : 48.0 KHz
Bit depth : 16 bits
Compression mode : Lossy
Stream size : 236 MiB (5%)
Title : Проффесиональный многоголосый АС3/5.1 384 kbps
Language : Russian
Default : Yes
Forced : No

Audio #2
ID : 3
Format : DTS
Format/Info : Digital Theater Systems
Codec ID : A_DTS
Duration : 1h 26mn
Bit rate mode : Constant
Bit rate : 1 510 Kbps
Channel(s) : 6 channels
Channel positions : Front: L C R, Side: L R, LFE
Sampling rate : 48.0 KHz
Bit depth : 24 bits
Compression mode : Lossy
Stream size : 930 MiB (20%)
Title : Оригинал DTS 1536 kbps
Language : English
Default : No
Forced : No

скриншот   скриншот   скриншот   скриншот   скриншот  
pb.wtf



Скачать Выход через сувенирную лавку через торрент http://pic.kartinco.top/images/2000/phszcdryod.png Скачать фильм Выход через сувенирную лавку через торрент бесплантно в хорошем качестве Описание: Картина рассказывает невероятную, но правдивую историю о том, как эксцентричный буржуа французского происхождения, проживающий ... 5 10 4
Info! Золотая раздача, скачанное не засчитывается.
Торрент: Зарегистрирован [2012-04-08 09:56] · скачан: 44 раз
Статус: √ проверено
Размер: 4.6 GB
Как cкачать? Как скачать Выход через сувенирную лавку через торрент | qTorrent

% Раздел Тема Автор DL S | L
Фильмы 2009 [ 1.37 GB ] Выход через сувенирную лавку / Exit Through the Gift Shop [2010 документальный HDRip] MIO2008 Скачать
1 | 0

28-11-2019 20:33  

Отключить всю рекламу на сайте

    Дорогой пользователь! Огромная просьба, поблагодарите релизера, оцените раздачу и оставьте свои комментарий, если Вы скачали Выход через сувенирную лавку через торрент бесплатно! Внесите свою лепту в развитие PiratBit!
    Комментировать посты могут только пользователи прошедшие не сложную регистрацию
    Показать сообщения:    

    Выход через сувенирную лавку через торрент
    Скачать бесплатно Выход через сувенирную лавку
    Выход через сувенирную лавку скачать торрент
    Выход через сувенирную лавку смотреть онлайн
    Cкачать фильм Выход через сувенирную лавку бесплатно
    Выход через сувенирную лавку скачать торрент в хорошем качестве
    Выход через сувенирную лавку смотреть онлайн бесплатно в хорошем качестве


    Вы не можете начинать темы
    Вы не можете отвечать на сообщения
    Вы не можете редактировать свои сообщения
    Вы не можете удалять свои сообщения
    Вы не можете голосовать в опросах
    Вы не можете прикреплять файлы к сообщениям
    Вы можете скачивать файлы