Ссылка на приватное зеркало нашего сайта всего за 1$. Внимание количество ограничено!!!

2 сезон

iTunes

1 сезон

1

iTunes

iTunes

iTunes

1 сезон

RePack

30

ИГРА 18+

pack

ВАЖНО

!!Акция!!

Alien_RageХит недели

RePack

MK11
pack

Забери бонус

RePack

jed

!!Акция!!

Alien_Rage

RePack

fifa19

RePack

Assassins Creed: Odyssey

RePack

NEED FOR SPEED™ PAYBACK

4 сезон

9 сезон

Бесстыжие 9 сезон

Все сериалы

все сериалы на PB.wtf

RePack

FAR CRY 5
  

Аполлон 18 / Apollo 18 (Гонсало Лопес-Гальего) [2011 г., ужасы, фантастика, триллер, BDRip (720p), VO (лицензия)] pb.wtf

Аполлон 18 через торрент pb.wtf

Размер: 5.27 GB | Добавлен: 8 лет 6 мес. назад | Торрент скачан:122 раза
Скачать  

09-04-2012 04:54 Аполлон 18 Скачать торрент  



Аполлон 18 / Apollo 18

Год выпуска: 2011
Страна: США, Канада
Жанр: ужасы, фантастика, триллер
Продолжительность: 01:26:32
Перевод: Профессиональный (одноголосый)
Тип релиза: Лицензия

Режиссер: Гонсало Лопес-Гальего
Продюссер: Тимур Бекмамбетов



В ролях: Уоррен Кристи, Райан Роббинс, Эли Либерт, Ллойд Оуэн, Эндрю Эйрли, Майкл Копса, Курт Макс Рунте

Описание: По официальным данным «Аполлон 17» был последней лунной экспедицией с участием людей. Почему уже 35 лет никто не летает на Луну? Ходили слухи, что была еще одна миссия и с ней что-то случилось, но вся информация об этом была засекречена. Не было никаких доказательств, пока не появились эти сенсационные материалы.

Качество: BDRip (720p)
Формат: MKV
Видео кодек: H.266
Аудио кодек: DTS
Видео: 5710 kb/s, 1280x720, 23.976 fps, 16:9
Аудио#1: DTS, 1536 kb/s, 6 ch, 48 КГц, 24 бит [Проф. одноголосый]
Аудио#2: DTS, 1536 kb/s, 6 ch, 48 КГц, 24 бит [Оригинал]
● Съёмки фильма проходили с 20 декабря 2010 года по 14 января 2011 в Британской Колумбии.
● Для достижения большего эффекта достоверности и стилизации под запись высадки на Луну съёмки велись теми же камерами и на ту же пленку, что и во время реального путешествия на Луну.

Формат : Matroska
Версия формата : Version 2
Размер файла : 5,27 Гбайт
Продолжительность : 1 ч. 26 м.
Общий поток : 8712 Кбит/сек
Дата кодирования : UTC 2011-12-04 14:23:36
Программа кодирования : mkvmerge v5.0.1 ('Es ist Sommer') built on Oct 9 2011 11:55:43
Библиотека кодирования : libebml v1.2.2 + libmatroska v1.3.0

Видео
Идентификатор : 1
Формат : AVC
Формат/Информация : Advanced Video Codec
Профиль формата : High@L4.1
Параметр CABAC формата : Да
Параметр ReFrames формата : 9 кадров
Режим смешивания : Header stripping
Идентификатор кодека : V_MPEG4/ISO/AVC
Продолжительность : 1 ч. 26 м.
Битрейт : 5710 Кбит/сек
Ширина : 1280 пикселей
Высота : 720 пикселей
Соотношение сторон : 16:9
Частота кадров : 23,976 кадра/сек
Цветовое пространство : YUV
Субдискретизация насыщенности : 4:2:0
Битовая глубина : 8 бит
Тип развёртки : Прогрессивная
Бит/(Пиксели*Кадры) : 0.258
Размер потока : 3,34 Гбайт (63%)
Библиотека кодирования : x264 core 115 r2008 4c552d8
Настройки программы : cabac=1 / ref=9 / deblock=1:-3:-3 / analyse=0x3:0x113 / me=umh / subme=10 / psy=1 / psy_rd=1.10:0.15 / mixed_ref=1 / me_range=32 / chroma_me=1 / trellis=2 / 8x8dct=1 / cqm=2 / deadzone=21,11 / fast_pskip=0 / chroma_qp_offset=-2 / threads=12 / sliced_threads=0 / nr=0 / decimate=1 / interlaced=0 / bluray_compat=0 / constrained_intra=0 / bframes=6 / b_pyramid=2 / b_adapt=2 / b_bias=0 / direct=3 / weightb=1 / open_gop=0 / weightp=2 / keyint=250 / keyint_min=23 / scenecut=40 / intra_refresh=0 / rc_lookahead=60 / rc=2pass / mbtree=1 / bitrate=5710 / ratetol=1.0 / qcomp=0.60 / qpmin=1 / qpmax=63 / qpstep=4 / cplxblur=20.0 / qblur=0.5 / vbv_maxrate=40000 / vbv_bufsize=30000 / nal_hrd=none / ip_ratio=1.40 / aq=1:0.80
Язык : English

Аудио #1
Идентификатор : 2
Формат : DTS
Формат/Информация : Digital Theater Systems
Режим смешивания : Header stripping
Идентификатор кодека : A_DTS
Продолжительность : 1 ч. 26 м.
Вид битрейта : Постоянный
Битрейт : 1510 Кбит/сек
Каналы : 6 каналов
Расположение каналов : Front: L C R, Side: L R, LFE
Частота : 48,0 КГц
Битовая глубина : 24 бит
Метод сжатия : С потерями
Размер потока : 936 Мбайт (17%)
Заголовок : Проф. одноголосый
Язык : Russian

Аудио #2
Идентификатор : 3
Формат : DTS
Формат/Информация : Digital Theater Systems
Режим смешивания : Header stripping
Идентификатор кодека : A_DTS
Продолжительность : 1 ч. 26 м.
Вид битрейта : Постоянный
Битрейт : 1510 Кбит/сек
Каналы : 6 каналов
Расположение каналов : Front: L C R, Side: L R, LFE
Частота : 48,0 КГц
Битовая глубина : 24 бит
Метод сжатия : С потерями
Размер потока : 936 Мбайт (17%)
Язык : English

Текст
Идентификатор : 4
Формат : UTF-8
Идентификатор кодека : S_TEXT/UTF8
Идентификатор кодека/Информация : UTF-8 Plain Text
Язык : English

pb.wtf



Скачать Аполлон 18 через торрент http://pic.kartinco.top/images/2000/zghsznyyy4.jpg Скачать фильм Аполлон 18 через торрент бесплантно в хорошем качестве Описание: По официальным данным «Аполлон 17» был последней лунной экспедицией с участием людей. Почему уже 35 лет никто не летает на Луну? ... 10 10 2
Info! Золотая раздача, скачанное не засчитывается.
Торрент: Зарегистрирован [2012-04-09 04:54] · скачан: 122 раз
Статус: √ проверено
Размер: 5.27 GB
Как cкачать? Как скачать Аполлон 18 через торрент | qTorrent

% Раздел Тема Автор DL S | L
Фильмы 2011 [ 1.46 GB ] Аполлон 18 / Apollo 18 [2011 BDRip] VO [лицензия R5] danii Скачать
1 | 0
Фильмы [HD 720p, 1080p] (Хороший звук DUB, MVO) [ 12.17 GB ] Аполлон 18 / Apollo 18 [2011 Blu-ray] ACFIORENTINA Скачать
1 | 0
Фильмы 2011 [ 741 MB ] Аполлон 18 / Apollo 18 [2011 DVDRip] |лицензия| -=Cherry=- Скачать
1 | 0
Фильмы (DVD фильмы) [ 4.22 GB ] Аполлон 18 / Apollo 18 [2011 DVD5] R5 «CP-Digital» voovaz Скачать
1 | 0
Фильмы 2011 [ 1.37 GB ] Аполлон 18 / Apollo 18 [2011 DVDRip лицензия] Lil Badun Скачать
1 | 0

28-11-2019 20:33  

Отключить всю рекламу на сайте

16-04-2012 15:50 Аполлон 18 Скачать торрент  

НА ЛЮБИТЕЛЯ НО ЖЕНЕ НЕ ПОНРАВИЛСЯ СПЕЦ ЭФЕКТОВ ПОЧТИ НЕТ БОЛЬШЕ ПСИХОЛОГИЧЕСКИЙpb.wtf



    Дорогой пользователь! Огромная просьба, поблагодарите релизера, оцените раздачу и оставьте свои комментарий, если Вы скачали Аполлон 18 через торрент бесплатно! Внесите свою лепту в развитие PiratBit!
    Комментировать посты могут только пользователи прошедшие не сложную регистрацию
    Показать сообщения:    

    Аполлон 18 через торрент
    Скачать бесплатно Аполлон 18
    Аполлон 18 скачать торрент
    Аполлон 18 смотреть онлайн
    Cкачать фильм Аполлон 18 бесплатно
    Аполлон 18 скачать торрент в хорошем качестве
    Аполлон 18 смотреть онлайн бесплатно в хорошем качестве


    Вы не можете начинать темы
    Вы не можете отвечать на сообщения
    Вы не можете редактировать свои сообщения
    Вы не можете удалять свои сообщения
    Вы не можете голосовать в опросах
    Вы не можете прикреплять файлы к сообщениям
    Вы можете скачивать файлы