2 сезон

iTunes

MVO

1

2 сезон

iTunes

iTunes

1 сезон

RePack

30

Ultimate

ВАЖНО

ИГРА 18+

pack

RePack

MK11
pack

Легкие деньги

RePack

jed

RePack

fifa19

RePack

RDR2

RePack

NEED FOR SPEED™ PAYBACK

4 сезон

9 сезон

Бесстыжие 9 сезон

Все сериалы

все сериалы на PB.wtf

RePack

FAR CRY 5

Anonymous, добрый вечер, мы не успеваем собрать деньги на оплату серверов за декабрь и январь, помогите нам пожалуйста в это трудное время. В качестве благодарности мы отключим Вам всю рекламу на сайте (укажите свой ник в строку Ваше имя)!

×
  
Magnet ссылка

[Lady-Sonia] Jenna Ray (First Time On Video) [10.04.2012 г., Stockings, Nylons, Bra, Panties, Vibrator, SATRip] pb.wtf

через торрент pb.wtf

Размер: 346 MB | Добавлен: 8 лет 9 мес. назад | Торрент скачан:40 раз
Скачать  

10-04-2012 08:50 Скачать торрент  

[font="sans-serif"][Lady-Sonia.com]
Jenna Ray
First Time On Video
[10.04.2012 г.]

[font="sans-serif"]Имя актрисы: Jenna Ray
Название ролика: First Time On Video
Подсайт и сайт: Lady-Sonia.com

Год производства: 2012 г.
Жанр: Stockings, Nylons, Bra, Panties, Vibrator
Продолжительность: 00:23:04

Качество: SATRip
Формат видео: MP4
Видео кодек: AVC
Аудио кодек: AAC
Видео: 25.000 fps, 2 001 Kbps, 720x404
Аудио: 93.0 Kbps, 2 channels, 48.0 KHz

Описание:
Jenna Ray contacted us through a friend and this was the very first time
that she ever undressed for a video camera and we are so pleased that
she shot her very first video ever for us here…
Jenna was VERY nervous and at one point I really thought that she was
going to change her mind but she was VERY determined and this video
shows EVERY SECOND of her very first video and captures EVERYTHING in full close-up!
Jenna has a really FABULOUS figure and even though she is very nervous you can see
how much she enjoys showing herself off for you. I really love her amazing tits and big nipples and...

General
Complete name : Jenna First Time On Video.mp4
Format : MPEG-4
Format profile : Base Media / Version 2
Codec ID : mp42
File size : 346 MiB
Duration : 23mn 4s
Overall bit rate mode : Variable
Overall bit rate : 2 097 Kbps
Encoded date : UTC 2012-02-23 21:45:04
Tagged date : UTC 2012-02-23 21:45:04
Writing library : AVS

Video
ID : 1
Format : AVC
Format/Info : Advanced Video Codec
Format profile : Baseline@L1.3
Format settings, CABAC : No
Format settings, ReFrames : 1 frame
Codec ID : avc1
Codec ID/Info : Advanced Video Coding
Duration : 23mn 4s
Bit rate : 2 001 Kbps
Width : 720 pixels
Height : 404 pixels
Display aspect ratio : 16:9
Frame rate mode : Constant
Frame rate : 25.000 fps
Color space : YUV
Chroma subsampling : 4:2:0
Bit depth : 8 bits
Scan type : Progressive
Bits/(Pixel*Frame) : 0.275
Stream size : 330 MiB (95%)
Language : English
Encoded date : UTC 2012-02-23 21:45:04
Tagged date : UTC 2012-02-23 21:45:04

Audio
ID : 2
Format : AAC
Format/Info : Advanced Audio Codec
Format profile : LC
Codec ID : 40
Duration : 23mn 4s
Bit rate mode : Variable
Bit rate : 93.0 Kbps
Maximum bit rate : 96.0 Kbps
Channel(s) : 2 channels
Channel positions : Front: L R
Sampling rate : 48.0 KHz
Compression mode : Lossy
Stream size : 15.3 MiB (4%)
Language : English
Encoded date : UTC 2012-02-23 21:45:04
Tagged date : UTC 2012-02-23 21:45:04
pb.wtf



pack Скачать через торрент http://i35.fastpic.ru/big/2012/0410/d7/e2942a087246a946204572daaaa264d7.jpg Скачать фильм [Lady-Sonia] Jenna Ray через торрент бесплантно в хорошем качестве Описание:Jenna Ray contacted us through a friend and this was the very first timethat she ever undressed for a video camera and we are so ... 4.5 10 2
Info! Золотая раздача, скачанное не засчитывается.
Торрент: Зарегистрирован [2012-04-10 08:50] · скачан: 40 раз
Статус: √ проверено
Размер: 346 MB
Как cкачать? Как скачать через торрент | UTorrent

28-11-2019 20:33  

Отключить всю рекламу на сайте

    Дорогой пользователь! Огромная просьба, поблагодарите релизера, оцените раздачу и оставьте свои комментарий, если Вы скачали через торрент бесплатно! Внесите свою лепту в развитие PiratBit!
    Комментировать посты могут только пользователи прошедшие не сложную регистрацию
    Показать сообщения:    

    через торрент
    Скачать бесплатно
    скачать торрент
    смотреть онлайн
    Cкачать фильм бесплатно
    скачать торрент в хорошем качестве
    смотреть онлайн бесплатно в хорошем качестве


    Вы не можете начинать темы
    Вы не можете отвечать на сообщения
    Вы не можете редактировать свои сообщения
    Вы не можете удалять свои сообщения
    Вы не можете голосовать в опросах
    Вы не можете прикреплять файлы к сообщениям
    Вы можете скачивать файлы