Ссылка на приватное зеркало нашего сайта всего за 1$. Внимание количество ограничено!!!

2 сезон

iTunes

1 сезон

1

2 сезон

2 сезон

iTunes

1 сезон

RePack

30

Ultimate

ВАЖНО

ИГРА 18+

pack

RePack

MK11
pack

Забери бонус

RePack

jed

!!Акция!!

Alien_Rage

RePack

fifa19

RePack

Assassins Creed: Odyssey

RePack

NEED FOR SPEED™ PAYBACK

4 сезон

9 сезон

Бесстыжие 9 сезон

Все сериалы

все сериалы на PB.wtf

RePack

FAR CRY 5
  

Самоубийцы (Егор Баранов) [2012 г., комедия, BDRip, Оригинал (лицензия)] pb.wtf

Самоубийцы через торрент pb.wtf

Размер: 1.37 GB | Добавлен: 8 лет 7 мес. назад | Торрент скачан:462 раза
Скачать  

10-04-2012 20:01 Самоубийцы Скачать торрент  

Самоубийцы

Год выпуска: 2012
Страна: Россия
Жанр: комедия
Продолжительность: 01:29:13
Перевод: Оригинал [лицензия]
Тип релиза: Лицензия

Режиссер: Егор Баранов

В ролях: Евгений Стычкин, Алексей Воробьев, Оксана Акиньшина, Гоша Куценко, Вилле Хаапасало, Марат Башаров, Михаил Полицеймако, Александр Стриженов, Евгений Рахманько, Даниил Меркулов и др.

Описание: Комедия о головокружительных приключениях трех друзей — Алексея, Толика и Марины, которые решили свести счеты с жизнью. Собрав вокруг себя неприкаянных единомышленников, новые друзья решают напоследок исполнить по последнему желанию друг друга. Это, на первый взгляд, безобидное решение превращает жизнь героев в непрерывный калейдоскоп феерических событий. Чем активнее друзья исполняют самые неожиданные желания друг друга, тем невероятнее истории, в которые они попадают.

Качество: BDRip[Рип с BluRay 1080p]
Формат: AVI
Видео кодек: XviD
Аудио кодек: AC3
Видео: XviD, 720x304 (2.35:1), 25.000 fps, 1 736 Kbps (0.317 bit/pixel)
Аудио#1: AC-3, 48.0 KHz, 6 ch, 448 Kbps, CBR
General
Complete name : D:\Тореннты\Samoybiycu.2012.O.BDRip.1400MB.avi
Format : AVI
Format/Info : Audio Video Interleave
File size : 1.37 GiB
Duration : 1h 29mn
Overall bit rate : 2 193 Kbps
Writing application : VirtualDubMod 1.5.10.3 | www.virtualdub-fr.org || (build 2550/release)
Writing library : VirtualDubMod build 2550/release

Video
ID : 0
Format : MPEG-4 Visual
Format profile : Advanced Simple@L5
Format settings, BVOP : 2
Format settings, QPel : No
Format settings, GMC : No warppoints
Format settings, Matrix : Default (MPEG)
Codec ID : XVID
Codec ID/Hint : XviD
Duration : 1h 29mn
Bit rate : 1 736 Kbps
Width : 720 pixels
Height : 304 pixels
Display aspect ratio : 2.35:1
Frame rate : 25.000 fps
Color space : YUV
Chroma subsampling : 4:2:0
Bit depth : 8 bits
Scan type : Progressive
Compression mode : Lossy
Bits/(Pixel*Frame) : 0.317
Stream size : 1.08 GiB (79%)
Writing library : XviD 64

Audio
ID : 1
Format : AC-3
Format/Info : Audio Coding 3
Mode extension : CM (complete main)
Codec ID : 2000
Duration : 1h 29mn
Bit rate mode : Constant
Bit rate : 448 Kbps
Channel(s) : 6 channels
Channel positions : Front: L C R, Side: L R, LFE
Sampling rate : 48.0 KHz
Bit depth : 16 bits
Compression mode : Lossy
Stream size : 286 MiB (20%)
Alignment : Split accross interleaves
Interleave, duration : 40 ms (1.00 video frame)
Interleave, preload duration : 500 ms
pb.wtf



Скачать Самоубийцы через торрент http://piratpic.net/images/23406419073068580860.png Скачать фильм Самоубийцы через торрент бесплантно в хорошем качестве Описание: Комедия о головокружительных приключениях трех друзей — Алексея, Толика и Марины, которые решили свести счеты с жизнью. Собрав ... 5 10 10
Info! Золотая раздача, скачанное не засчитывается.
Торрент: Зарегистрирован [2012-04-10 20:17] · скачан: 462 раз
Статус: √ проверено
Размер: 1.37 GB
Как cкачать? Как скачать Самоубийцы через торрент | qTorrent

% Раздел Тема Автор DL S | L
Фильмы (HD 720p, 1080p) (48-60 fps) [ 4.35 GB ] Отряд самоубийц / Suicide Squad [2016 BDRip 720p / 60 FPS + AVO] от R.G. HD-Films slaventi-69 Скачать
9 | 0
Фильмы с авторской озвучкой [ 2.5 GB ] Зал самоубийц: Хейтер / Хейтер / Sala samobójców. Hejter / The Hater [2020 BDRip-AVC] [AVO] [Матвеев] от wolf1245 & MediaBit Lithuania Скачать
1 | 0
Фильмы 2019-2020 [DVDrip, WEB-DLRip, HDrip] (DUB, MVO) [ 878 MB ] Отель для самоубийц / Selvmordsturisten / Suicide Tourist / Manden Uden Fremtid [2019 HDRip] bober100 Скачать
1 | 0
Фильмы 2019-2020 [DVDrip, WEB-DLRip, HDrip] (DUB, MVO) [ 1.45 GB ] Отель для самоубийц / Selvmordsturisten / Suicide Tourist / Manden Uden Fremtid [2019 BDRip] - Twi7ter Скачать
10 | 1
Фильмы 2019-2020 [DVDrip, WEB-DLRip, HDrip] (DUB, MVO) [ 1.46 GB ] Отель для самоубийц / Selvmordsturisten / Suicide Tourist / Manden Uden Fremtid [2019 BDRip] bober100 Скачать
2 | 0
Фильмы [HD 720p, 1080p] (Хороший звук DUB, MVO) [ 7.09 GB ] Отель для самоубийц / Selvmordsturisten / Suicide Tourist / Manden Uden Fremtid [2019 BDRip 1080p] bober100 Скачать
3 | 0
T Фильмы (мультфильмы) cо спонсором показа (Новинки AVI/MKV) [ 3.34 GB ] Отель для самоубийц / Selvmordsturisten / Suicide Tourist / Manden Uden Fremtid [2019 WEB-DL 720p] MVO [@MUZOBOZ@] bober100 Скачать
1 | 0


Последний раз редактировалось: ~Relizer~ (2012-04-10 20:17), всего редактировалось 3 раз(а)

28-11-2019 20:33  

Отключить всю рекламу на сайте

10-04-2012 20:28 Самоубийцы Скачать торрент  

lyokaa для меня это тоже странно но всеже я поправил все запарки )pb.wtf



11-04-2012 05:07 Самоубийцы Скачать торрент  

фильм pb.wtf



11-04-2012 17:25 Самоубийцы Скачать торрент  

Из за увеличения, в последнее время, самоубийств среди взрослых и, особенно, детей, название и начальную тему фильма считаю неудачной. Даже и смотреть его не хочу.
"Ха-ха-ха, давайте мы покончим жизнь самоубийством это так прикольно, ха-ха-ха" :negative: :negative: :negative:pb.wtf



    Дорогой пользователь! Огромная просьба, поблагодарите релизера, оцените раздачу и оставьте свои комментарий, если Вы скачали Самоубийцы через торрент бесплатно! Внесите свою лепту в развитие PiratBit!
    Комментировать посты могут только пользователи прошедшие не сложную регистрацию
    Показать сообщения:    

    Самоубийцы через торрент
    Скачать бесплатно Самоубийцы
    Самоубийцы скачать торрент
    Самоубийцы смотреть онлайн
    Cкачать фильм Самоубийцы бесплатно
    Самоубийцы скачать торрент в хорошем качестве
    Самоубийцы смотреть онлайн бесплатно в хорошем качестве


    Вы не можете начинать темы
    Вы не можете отвечать на сообщения
    Вы не можете редактировать свои сообщения
    Вы не можете удалять свои сообщения
    Вы не можете голосовать в опросах
    Вы не можете прикреплять файлы к сообщениям
    Вы можете скачивать файлы