2 сезон

iTunes

MVO

1

2 сезон

iTunes

iTunes

1 сезон

RePack

30

Новинка

ВАЖНО

ИГРА 18+

pack

RePack

MK11
pack

Легкие деньги

RePack

jed

RePack

fifa19

RePack

RDR2

RePack

NEED FOR SPEED™ PAYBACK

4 сезон

9 сезон

Бесстыжие 9 сезон

Все сериалы

все сериалы на PB.wtf

RePack

FAR CRY 5

Anonymous, добрый день, мы не успеваем собрать деньги на оплату серверов за декабрь и январь, помогите нам пожалуйста в это трудное время. В качестве благодарности мы отключим Вам всю рекламу на сайте (укажите свой ник в строку Ваше имя)!

×
  
Magnet ссылка

Фантом 3D / The Darkest Hour 3D (Крис Горак) [2011 г., фантастика, триллер, BDRip-AVC] [ лицензия ] DUB R5 Анаглиф pb.wtf

Фантом 3D через торрент pb.wtf

Размер: 5.91 GB | Добавлен: 8 лет 9 мес. назад | Торрент скачан:303 раза
Скачать  

12-04-2012 17:20 Фантом 3D Скачать торрент  

Фантом 3D / The Darkest Hour 3D

Год выпуска: 2011
Страна: США / Россия, Summit Entertainment
Жанр: фантастика, триллер
Продолжительность: 01:28:58
Перевод: Профессиональный (полное дублирование)[Лицензия]

Режиссер: Крис Горак

В ролях: Эмиль Хирш, Оливия Тирлби, Макс Мингелла, Рэйчел Тейлор, Йоэль Чиннаман, Вероника Вернадская, Дато Бахтадзе, Гоша Куценко, Николай Ефремов, Артур Смольянинов

Описание: Фильм расскажет про американскую туристку, оказавшуюся вместе со своими согражданами в Москве в момент нападения инопланетян на столицу России.

Для просмотра нужны очки-

Качество: BDRip 720p
Формат: MKV
Видео кодек: AVC
Аудио кодек: AC3
Видео: 1280x720, 23.976 кадр/сек, 9300 Кбит/сек , (16:9), 0.421Бит/(Пиксели*Кадры)
Аудио: AC3,384 Кбит/сек , 48,0 КГц, 6 канала(ов)
General
Unique ID : 245027570249214148192759934411746666545 (0xB85697EDEF34FAA4B076EB4736416831)
Complete name : D:The.Darkest.Hour.3D.mkv
Format : Matroska
Format version : Version 2
File size : 5.80 GiB
Duration : 1h 28mn
Overall bit rate : 9 325 Kbps
Encoded date : UTC 2012-04-06 12:30:13
Writing application : mkvmerge v5.4.0 ('Piper') built on Mar 10 2012 13:34:39
Writing library : libebml v1.2.3 + libmatroska v1.3.0

Video
ID : 1
Format : AVC
Format/Info : Advanced Video Codec
Format profile : High@L4.1
Format settings, CABAC : Yes
Format settings, ReFrames : 4 frames
Codec ID : V_MPEG4/ISO/AVC
Duration : 1h 28mn
Bit rate : 9 300 Kbps
Width : 1 280 pixels
Height : 720 pixels
Display aspect ratio : 16:9
Frame rate : 23.976 fps
Color space : YUV
Chroma subsampling : 4:2:0
Bit depth : 8 bits
Scan type : Progressive
Bits/(Pixel*Frame) : 0.421
Stream size : 5.56 GiB (96%)
Writing library : x264 core 120 r2120bm 0c7dab9
Encoding settings : cabac=1 / ref=2 / deblock=1:-1:-1 / analyse=0x3:0x113 / me=hex / subme=4 / psy=1 / psy_rd=1.00:0.15 / mixed_ref=0 / me_range=16 / chroma_me=1 / trellis=1 / 8x8dct=1 / cqm=0 / deadzone=21,11 / fast_pskip=1 / chroma_qp_offset=-1 / threads=6 / sliced_threads=0 / nr=0 / decimate=1 / interlaced=0 / bluray_compat=0 / constrained_intra=0 / bframes=3 / b_pyramid=2 / b_adapt=1 / b_bias=0 / direct=1 / weightb=1 / open_gop=0 / weightp=1 / keyint=250 / keyint_min=23 / scenecut=40 / intra_refresh=0 / rc_lookahead=20 / rc=abr / mbtree=1 / bitrate=9300 / ratetol=1.0 / qcomp=0.60 / qpmin=0 / qpmax=69 / qpstep=4 / ip_ratio=1.40 / aq=1:1.00
Default : Yes
Forced : No

Аудио
Идентификатор : 2
Формат : AC-3
Формат/Информация : Audio Coding 3
Расширение режима : CM (complete main)
Идентификатор кодека : A_AC3
Продолжительность : 1 ч. 28 м.
Вид битрейта : Постоянный
Битрейт : 384 Кбит/сек
Канал(ы) : 6 канала(ов)
Расположение каналов : Front: L C R, Side: L R, LFE
Частота : 48,0 КГц
Битовая глубина : 16 бит
Метод сжатия : С потерями
Задержка видео : 16 мс.
Размер потока : 244 Мбайт (4%)




Звук заменен на лицензию, перекачайте тор.файлpb.wtf



Скачать Фантом 3D через торрент http://i35.fastpic.ru/big/2012/0412/d6/f47aaac04c62f6b9dcf385c5f4ea12d6.gif Скачать фильм Фантом 3D через торрент бесплантно в хорошем качестве Описание: Фильм расскажет про американскую туристку, оказавшуюся вместе со своими согражданами в Москве в момент нападения инопланетян на ... 10 10 1
Info! Золотая раздача, скачанное не засчитывается.
Торрент: Зарегистрирован [2012-04-16 21:46] · скачан: 303 раз
Статус: √ проверено
Размер: 5.91 GB
Как cкачать? Как скачать Фантом 3D через торрент | UTorrent

28-11-2019 20:33  

Отключить всю рекламу на сайте

17-04-2012 02:30 Фантом 3D Скачать торрент  

Почему не отправляются сообщения?pb.wtf



17-04-2012 09:59 Фантом 3D Скачать торрент  

За раздачу пожалуйста , а ночью я сплю.pb.wtf



19-04-2012 20:30 Фантом 3D Скачать торрент  

Даешь стереопару ???!!!!pb.wtf



    Дорогой пользователь! Огромная просьба, поблагодарите релизера, оцените раздачу и оставьте свои комментарий, если Вы скачали Фантом 3D через торрент бесплатно! Внесите свою лепту в развитие PiratBit!
    Комментировать посты могут только пользователи прошедшие не сложную регистрацию
    Показать сообщения:    

    Фантом 3D через торрент
    Скачать бесплатно Фантом 3D
    Фантом 3D скачать торрент
    Фантом 3D смотреть онлайн
    Cкачать фильм Фантом 3D бесплатно
    Фантом 3D скачать торрент в хорошем качестве
    Фантом 3D смотреть онлайн бесплатно в хорошем качестве


    Вы не можете начинать темы
    Вы не можете отвечать на сообщения
    Вы не можете редактировать свои сообщения
    Вы не можете удалять свои сообщения
    Вы не можете голосовать в опросах
    Вы не можете прикреплять файлы к сообщениям
    Вы можете скачивать файлы