новый адрес пиратбит piratbit
MEGA NEWS Получи личный уникальный адрес сайта и защити себя от блокировок. Внимание количество ограничено!!!

iTunes

1+1

iTunes

мы

iTunes

1

iTunes

Чернобыль

iTunes

Ральф против интернета

Лицензия

ПШазам

Лицензия

Игра престолов

Лицензия

30
pack

ВАЖНО

!!Акция!!

Alien_RageХит недели

RePack

Resident Evil 21

ИГРА 18+

pack

RePack

Metro:Exodus

!!Акция!!

Alien_Rage

RePack

fifa19

RePack

Assassins Creed: Odyssey

RePack

NEED FOR SPEED™ PAYBACK

3 сезон

9 сезон

Бесстыжие 9 сезон

Все сериалы

все сериалы на PB.wtf

RePack

FAR CRY 5
Ребята, катастрофически не хватает 1900р. для оплаты серверов за АВГУСТ (всвязи с блокировками трафик упал в 3 раза), 1-2р., выручайте.
  

Неадекватные люди (Роман Каримов) [2010, драма, мелодрама, комедия, BDRip 1080p] pb.wtf

Неадекватные люди через торрент pb.wtf

Раздают: 4 [ 100 KB/s ]
Размер: 9.25 GB | Добавлен: 2 года 3 мес. назад | Торрент скачан:173 раза
Скачать  

16-08-2011 16:37 Неадекватные люди Скачать торрент  

Неадекватные люди
««Биться головой о стенку гораздо веселее, когда знаешь, что за ней скрывается родственная душа»»

Год выпуска: 2010
Страна: Россия
Жанр: драма, мелодрама, комедия

Продолжительность: 01:46:16
Перевод: Не требуется [Русский]
Режиссер: Роман Каримов
В ролях:

Илья Любимов (Виталий), Ингрид Олеринская (Кристина), Евгений Цыганов (психолог), Юлия Такшина (Марина), Артем Душкин (Артур), Полина Иосилевич (Нина), Марина Зайцева (Юлия), Анастасия Федоркова (Света), Назар Ас-Самаррай (мужик со стульями), Анна Глаубэ (ассистентка психолога), Роман Каримов (бармен), Ольга Руденко (девушка Виталия)
Описание:
Тридцатилетний молодой человек Виталий, убегая от надоедливых проблем и душевного дискомфорта, бросает провинциальный городок Серпухов и переезжает в Москву, надеясь именно здесь найти гармонию с собственным «я». Но до состояния гармонии ему оказывается слишком далеко, ведь впоследствии возникает очень много вопросов, связанных с его новой соседкой Кристиной, которой также не очень везет в жизни и которая пытается «сделать» из него действительно крутого мэна, а также с начальницей, желающей затащить его в кровать. С каждым днем он все больше убеждается в неадекватности подобных людей, которые буквально сорвались с цепи. Но что, если проблема не только в них?
Рейтинг:

Качество: BDRip 1080p
Формат: MKV
Видео: AVC, 1920x1080 (16:9), 10688 kbps, 23,976 fps, 0,215 bpp
Аудио №1: русский / DTS / 5.1 / 48 kHz / 1152 kbps / 16 bit |Оригинал|
Аудио №2: русский / AC3 / 5.1 / 48 kHz / 640 kbps / |Оригинал|
Навигация по главам: есть
Релиз от: HDReactor
General
Unique ID : 173176087281785462029924954307529065635 (0x8248804F9CA3E24283077D4D99D0C4A3)
Complete name : E:\NL_Rip1080_HDR.mkv
Format : Matroska
Format version : Version 2
File size : 9.25 GiB
Duration : 1 h 46 min
Overall bit rate mode : Variable
Overall bit rate : 12.5 Mb/s
Movie name : Неадекватные люди_Rip1080_HDReactor.org
Encoded date : UTC 2011-02-20 14:38:10
Writing application : mkvmerge v3.4.0 ('Rapunzel') сборка от May 15 2010 09:38:20
Writing library : libebml v0.8.0 + libmatroska v0.9.0

Video
ID : 1
Format : AVC
Format/Info : Advanced Video Codec
Format profile : High@L4.1
Format settings, CABAC : Yes
Format settings, ReFrames : 4 frames
Codec ID : V_MPEG4/ISO/AVC
Duration : 1 h 46 min
Bit rate mode : Variable
Bit rate : 10.7 Mb/s
Maximum bit rate : 40.0 Mb/s
Width : 1 920 pixels
Height : 1 080 pixels
Display aspect ratio : 16:9
Frame rate mode : Constant
Frame rate : 23.976 FPS
Color space : YUV
Chroma subsampling : 4:2:0
Bit depth : 8 bits
Scan type : Progressive
Bits/(Pixel*Frame) : 0.215
Stream size : 7.73 GiB (84%)
Writing library : x264 core 112 r1867 22bfd31
Encoding settings : cabac=1 / ref=5 / deblock=1:-3:-3 / analyse=0x3:0x113 / me=umh / subme=10 / psy=1 / psy_rd=1.00:0.10 / mixed_ref=1 / me_range=32 / chroma_me=1 / trellis=2 / 8x8dct=1 / cqm=0 / deadzone=21,11 / fast_pskip=0 / chroma_qp_offset=-4 / threads=6 / sliced_threads=0 / slices=4 / nr=0 / decimate=0 / interlaced=0 / constrained_intra=0 / bframes=7 / b_pyramid=1 / b_adapt=2 / b_bias=0 / direct=1 / weightb=1 / open_gop=0 / weightp=2 / keyint=250 / keyint_min=23 / scenecut=40 / intra_refresh=0 / rc_lookahead=40 / rc=2pass / mbtree=0 / bitrate=10688 / ratetol=1.0 / qcomp=0.60 / qpmin=10 / qpmax=51 / qpstep=4 / cplxblur=20.0 / qblur=0.5 / vbv_maxrate=40000 / vbv_bufsize=30000 / nal_hrd=vbr / ip_ratio=1.40 / pb_ratio=1.30 / aq=1:0.80
Language : Russian
Default : No
Forced : No

Audio #1
ID : 2
Format : DTS
Format/Info : Digital Theater Systems
Mode : 16
Format settings, Endianness : Big
Codec ID : A_DTS
Duration : 1 h 46 min
Bit rate mode : Constant
Bit rate : 1 152 kb/s
Channel(s) : 6 channels
Channel positions : Front: L C R, Side: L R, LFE
Sampling rate : 48.0 kHz
Frame rate : 93.750 FPS (512 spf)
Bit depth : 16 bits
Compression mode : Lossy
Stream size : 876 MiB (9%)
Title : DTS
Language : Russian
Default : Yes
Forced : No

Audio #2
ID : 3
Format : AC-3
Format/Info : Audio Coding 3
Mode extension : CM (complete main)
Format settings, Endianness : Big
Codec ID : A_AC3
Duration : 1 h 46 min
Bit rate mode : Constant
Bit rate : 640 kb/s
Channel(s) : 6 channels
Channel positions : Front: L C R, Side: L R, LFE
Sampling rate : 48.0 kHz
Frame rate : 31.250 FPS (1536 spf)
Compression mode : Lossy
Stream size : 486 MiB (5%)
Title : AC3
Language : Russian
Default : No
Forced : No

Menu
00:00:00.000 : en:00:00:00.000
00:05:19.569 : en:00:05:19.569
00:12:37.423 : en:00:12:37.423
00:17:41.352 : en:00:17:41.352
00:23:15.894 : en:00:23:15.894
00:27:38.240 : en:00:27:38.240
00:33:24.211 : en:00:33:24.211
00:39:25.780 : en:00:39:25.780
00:44:54.066 : en:00:44:54.066
00:50:08.631 : en:00:50:08.631
00:56:11.159 : en:00:56:11.159
01:05:01.981 : en:01:05:01.981
01:10:57.295 : en:01:10:57.295
01:15:08.421 : en:01:15:08.421
01:21:50.155 : en:01:21:50.155
01:26:24.638 : en:01:26:24.638
01:32:01.266 : en:01:32:01.266
01:35:26.721 : en:01:35:26.721
pb.wtf



Скачать Неадекватные люди через торрент http://i2.imageban.ru/out/2017/07/08/6b8b77c8649806cb5e44c26683ff0ee1.png Скачать фильм Неадекватные люди через торрент бесплантно в хорошем качестве Описание: Тридцатилетний молодой человек Виталий, убегая от надоедливых проблем и душевного дискомфорта, бросает провинциальный городок ... 10 10 19
Info! Золотая раздача, скачанное не засчитывается.
Торрент: Зарегистрирован [2017-07-08 08:15] · скачан: 173 раз
Статус: √ проверено
Размер: 9.25 GB
Как cкачать? Как скачать Неадекватные люди через торрент | qTorrent

% Раздел Тема Автор DL S | L
Наши фильмы (HD, WEB-DL 720p, 1080p) [ 4.18 GB ] Неадекватные люди / Neadekvatnye ludi [2010 BDRip ] Shmel Скачать
1 | 0
Наши фильмы (Blu-ray, BD-Remux, HDDVD) [ 29.55 GB ] Неадекватные люди [2010 Blu-Ray 1080p] killermax2013 Скачать
1 | 0
Наши фильмы 2010-2011 [ 1.37 GB ] Неадекватные люди [2010 DVDRip] Чупачупсик Скачать
2 | 0
Фильмы 2010 [ 1.46 GB ] Неадекватные люди [2010 DVDRip-AVC лицензия] Lil Badun Скачать
3 | 0
Наши фильмы 2010-2011 [ 745 MB ] Неадекватные люди [2010 DVDRip] WISE Скачать
1 | 0


Последний раз редактировалось: Leshka37 (2011-09-08 14:48), всего редактировалось 2 раз(а)


>> Регистрируемся здесь <<






Отзывы и комментарии о схеме читаем и пишем здесь: ---> Отзывы и комментарии о схеме

Новые благодарочки в телеграм довольных пользователей:
скриншот   скриншот   скриншот   скриншот   скриншот

16-08-2011 17:24 Неадекватные люди Скачать торрент  

жороший фильм!pb.wtf



08-07-2017 09:53 Неадекватные люди Скачать торрент  

+10 pb.wtf



08-07-2017 13:38 Неадекватные люди Скачать торрент  

Достойное кино!!! pb.wtf



09-07-2017 10:02 Неадекватные люди Скачать торрент  

прикольный фильм. с удовольствием посмотрел.pb.wtf



    Дорогой пользователь! Огромная просьба, поблагодарите релизера, оцените раздачу и оставьте свои комментарий, если Вы скачали Неадекватные люди через торрент бесплатно! Внесите свою лепту в развитие PiratBit!
    Комментировать посты могут только пользователи прошедшие не сложную регистрацию
    Показать сообщения:    

    Неадекватные люди через торрент
    Скачать бесплатно Неадекватные люди
    Неадекватные люди скачать торрент
    Неадекватные люди смотреть онлайн
    Cкачать фильм Неадекватные люди бесплатно
    Неадекватные люди скачать торрент в хорошем качестве
    Неадекватные люди смотреть онлайн бесплатно в хорошем качестве


    Вы не можете начинать темы
    Вы не можете отвечать на сообщения
    Вы не можете редактировать свои сообщения
    Вы не можете удалять свои сообщения
    Вы не можете голосовать в опросах
    Вы не можете прикреплять файлы к сообщениям
    Вы можете скачивать файлы