1 сезон

3 сезон

iTunes

1

Line

MVO

iTunes

13

1 сезон

RePack

30

Deluxe

pack

Лицензия

ВАЖНО

ИГРА 18+

pack

RePack

MK11

RePack

jed

RePack

fifa19

RePack

RDR2

RePack

NEED FOR SPEED™ PAYBACK

4 сезон

9 сезон

Бесстыжие 9 сезон

Все сериалы

все сериалы на PB.wtf

RePack

FAR CRY 5

Anonymous, доброй ночи, мы катастрофически не успеваем собрать деньги на оплату серверов, помогите нам пожалуйста 5,10,15р., для нас важна любая помощь . В качестве благодарности мы отключим Вам всю рекламу на сайте (укажите свой ник в строку Ваше имя)!

×
  
Magnet ссылка

Предел риска / Margin Call (Джей Си Чендор / J.C. Chandor) [2011, триллер, драма, DVD9] R5 «Мистерия Звука» pb.wtf

Предел риска через торрент pb.wtf

Размер: 6.67 GB | Добавлен: 9 лет 9 мес. назад | Торрент скачан:87 раз
Скачать  

18-10-2011 17:01 Предел риска Скачать торрент  


Предел риска / Margin Call
«Как спасти деньги?»
Страна: США
Студия: Before The Door Pictures, Benaroya Pictures, Margin Call, Sakonnet Capital Partners, Washington Square Films
Жанр: триллер, драма
Год выпуска: 2011
Мировая премьера: 25 января 2011
Российская премьера: 29 сентября 2011, «Top Film Distribution»
Дата выхода DVD: 20 октября 2011, «Мистерия Звука»
Дата выхода Blu-Ray: 20 октября 2011, «Мистерия Звука»
Продолжительность: 01:42:08
Перевод: Профессиональный (дублированный) [Лицензия]
Cубтитры: нет
Режиссер: Джей Си Чендор / J.C. Chandor
В ролях: Кевин Спейси, Пол Беттани, Джереми Айронс, Закари Куинто, Пенн Бэджли, Саймон Бейкер, Мэри МакДоннелл, Деми Мур, Стенли Туччи, Аасиф Мандви
Описание: Сентябрь 2008 года. Мировой экономический кризис уже начался, но Америка еще не знает, какая катастрофа ждет впереди, и только группа топ-менеджеров на Уолл-Стрит ищет рецепт спасения. Это были самые страшные часы в их жизни…
Сотрудник одного из крупнейших инвестиционных банков с помощью новейшей программы рыночного анализа получает ошеломляющий прогноз — акции упадут, рынок рухнет, банк потеряет все. Утром следующего дня он попадает под сокращение и перед уходом передает флэшку с опасной информацией своему бывшему помощнику. К вечеру лучшие аналитики банка, проверив эти вычисления, осознали ужасную перспективу: крах неминуем. Теперь они стоят перед выбором: начать срочный сброс акций, что оставит и крупных акционеров во всем мире, и миллионы рядовых вкладчиков ни с чем — или ждать развития событий, что чревато потерей вообще всего. Решать нужно здесь и сейчас. На кону — огромные деньги и будущее каждого. В эту ночь у риска нет предела

Бонусы: Смотрите на DVD

Релиз группы:
Качество: DVD9 R5
Формат: DVD-Video
Видео кодек: MPEG2
Аудио кодек: AC3
Видео: PAL 16:9 (720x576(0.797)) MPEG Video, 25,000 кадр/сек, 8266 Кбит/сек
Аудио: Russian (Dolby AC3, 6 ch) 448 Кбит/сек, 48,0 КГц



Title: Рабочий
Size: 6.67 Gb ( 6 989 534 KBytes ) - DVD-9
Enabled regions: 1, 2, 3, 4, 5, 6, 7, 8

VTS_01 :
Play Length: 00:00:46
Video: PAL 16:9 (720x576) VBR, Auto Letterboxed
Audio:
Russian (Dolby AC3, 2 ch)

VTS_02 :
Play Length: 01:42:08
Video: PAL 16:9 (720x576) VBR, Auto Letterboxed
Audio:
Russian (Dolby AC3, 6 ch)

VTS_03 :
Play Length: 00:01:52+00:01:41+00:01:51
Video: PAL 16:9 (720x576) VBR, Auto Letterboxed
Audio:
Russian (Dolby AC3, 2 ch)
Общее
Полное имя : G:\Новинки 2011\Predel.riska.2011.DVD9\VIDEO_TS\VTS_02_1.VOB
Формат : MPEG-PS
Размер файла : 1024 Мбайт
Продолжительность : 16 м.
Общий поток : 8891 Кбит/сек

Видео
Идентификатор : 224 (0xE0)
Формат : MPEG Video
Версия формата : Version 2
Профиль формата : Main@Main
Параметр BVOP формата : Да
Параметр матрицы формата : По умолчанию
Параметр GOP формата : M=3, N=15
Продолжительность : 16 м.
Вид битрейта : Переменный
Битрейт : 8266 Кбит/сек
Максимальный битрейт : 9000 Кбит/сек
Ширина : 720 пикселей
Высота : 576 пикселей
Соотношение сторон : 16:9
Частота кадров : 25,000 кадров/сек
Стандарт вещания : PAL
Цветовое пространство : YUV
Субдискретизация насыщенности : 4:2:0
Битовая глубина : 8 бит
Тип развёртки : Прогрессивная
Метод сжатия : С потерями
Бит/(Пиксели*Кадры) : 0.797
Размер потока : 952 Мбайт (93%)

Аудио
Идентификатор : 189 (0xBD)-128 (0x80)
Формат : AC-3
Формат/Информация : Audio Coding 3
Расширение режима : CM (complete main)
Режим смешивания : DVD-Video
Продолжительность : 16 м.
Вид битрейта : Постоянный
Битрейт : 448 Кбит/сек
Каналы : 6 каналов
Расположение каналов : Front: L C R, Side: L R, LFE
Частота : 48,0 КГц
Битовая глубина : 16 бит
Метод сжатия : С потерями
Задержка видео : -80 мс.
Размер потока : 51,6 Мбайт (5%)










pb.wtf



Скачать Предел риска через торрент http://i3.imageban.ru/out/2011/10/18/73b5b88356f7294f64db74a4c8229ea5.jpg Скачать фильм Предел риска через торрент бесплантно в хорошем качестве Описание: Сентябрь 2008 года. Мировой экономический кризис уже начался, но Америка еще не знает, какая катастрофа ждет впереди, и только ... 5 10 4
Info! Золотая раздача, скачанное не засчитывается.
Торрент: Зарегистрирован [2011-10-18 17:01] · скачан: 87 раз
Статус: √ проверено
Размер: 6.67 GB
Как cкачать? Как скачать Предел риска через торрент | UTorrent

28-11-2019 20:33  

Отключить всю рекламу на сайте

22-10-2011 12:12 Предел риска Скачать торрент  

СПАСИБО!pb.wtf



    Дорогой пользователь! Огромная просьба, поблагодарите релизера, оцените раздачу и оставьте свои комментарий, если Вы скачали Предел риска через торрент бесплатно! Внесите свою лепту в развитие PiratBit!
    Комментировать посты могут только пользователи прошедшие не сложную регистрацию
    Показать сообщения:    

    Предел риска через торрент
    Скачать бесплатно Предел риска
    Предел риска скачать торрент
    Предел риска смотреть онлайн
    Cкачать фильм Предел риска бесплатно
    Предел риска скачать торрент в хорошем качестве
    Предел риска смотреть онлайн бесплатно в хорошем качестве


    Вы не можете начинать темы
    Вы не можете отвечать на сообщения
    Вы не можете редактировать свои сообщения
    Вы не можете удалять свои сообщения
    Вы не можете голосовать в опросах
    Вы не можете прикреплять файлы к сообщениям
    Вы можете скачивать файлы