1 сезон

3 сезон

iTunes

1

iTunes

MVO

iTunes

13

1 сезон

RePack

30

Deluxe

pack

Лицензия

ВАЖНО

ИГРА 18+

pack

RePack

MK11

RePack

jed

RePack

fifa19

RePack

RDR2

RePack

NEED FOR SPEED™ PAYBACK

4 сезон

9 сезон

Бесстыжие 9 сезон

Все сериалы

все сериалы на PB.wtf

RePack

FAR CRY 5

Anonymous, доброе утро, мы катастрофически не успеваем собрать деньги на оплату серверов, помогите нам пожалуйста 5,10,15р., для нас важна любая помощь . В качестве благодарности мы отключим Вам всю рекламу на сайте (укажите свой ник в строку Ваше имя)!

×
  
Magnet ссылка

Ужасный Генри / Horrid Henry: The Movie (Ник Мур / Nick Moore) [2010, Великобритания, комедия, семейный, DVD9] R5 «Кармен Видео» pb.wtf

Ужасный Генри через торрент pb.wtf

Размер: 7.17 GB | Добавлен: 9 лет 7 мес. назад | Торрент скачан:15 раз
Скачать  

06-12-2011 20:40 Ужасный Генри Скачать торрент  


Ужасный Генри / Horrid Henry: The Movie
«Маленький проказник на большом экране»
Страна: Великобритания
Студия: Vertigo Films, Novel Entertainment Productions, Aegis Film Fund
Жанр: комедия, семейный
Год выпуска: 2010
Мировая премьера: 29 июля 2011
Российская премьера: 22 сентября 2011, «Каравелла DDC» 3D
Дата выхода DVD: 30 ноября 2011, «Кармен Видео», «Мистерия Звука»
Дата выхода Blu-Ray: 30 ноября 2011, «Кармен Видео»
Продолжительность: 01:28:58 + 01:29:02
Перевод: Профессиональный (дублированный) [Лицензия]
Cубтитры: русские
Режиссер: Ник Мур / Nick Moore
В ролях: Тео Стивенсон, Ричард Э. Грант, Парминдер К. Награ, Кимберли Уолш, Мэтью Хорн, Ричард МакКорт, Доминик Вуд, Ноэль Филдинг, Джо Брэнд, Анджелика Хьюстон
Описание: Сорванец Генри — главный хулиган в школе. Его боятся одноклассники и родители. Но когда коварный злодей Вик фон Морщини решает захватить школу, где учится проказник, оказывается, что только Генри может противостоять коварному злоумышленнику.
Бонусы: нет

Семпл в 2D Семпл в 3D
Релиз группы:
Качество: DVD9 R5
Формат: DVD-Video
Видео кодек: MPEG2
Аудио кодек: AC3
Видео: PAL 16:9 (720x576(0.483)) MPEG Video, 25,000 кадр/сек, 5011 Кбит/сек
Аудио #1: Russian (Dolby AC3, 6 ch) 384 Кбит/сек, 48,0 КГц
Аудио #2: Russian (Dolby AC3, 2 ch) 192 Кбит/сек, 48,0 КГц



Title:
Size: 7.17 Gb ( 7 516 432 KBytes ) - DVD-9
Enabled regions: 1, 2, 3, 4, 5, 6, 7, 8

VTS_01 :
Play Length: 01:28:58+01:29:02
Video: PAL 16:9 (720x576) VBR, Auto Pan&Scan
Audio:
Russian (Dolby AC3, 6 ch)
Russian (Dolby AC3, 2 ch)
Subtitles:
Russian

VTS_02 :
Play Length: 00:00:05+00:00:13
Video: PAL 16:9 (720x576) VBR, Auto Pan&Scan
Audio:
Russian (Dolby AC3, 6 ch)

VTS_03 :
Play Length: 00:01:14
Video: PAL 16:9 (720x576) VBR, Auto Pan&Scan
Audio:
Russian (Dolby AC3, 2 ch)

Menu Video:
PAL 16:9 (720x576) VBR
Auto Pan&Scan
Menu Audio:
Not specified (Dolby AC3, 2 ch)
Menu Subtitles:
Not specified
Menu Russian Language Unit :
Root Menu
Angle menu
Общее
Полное имя : G:\Новинки 2011\Uzhasnyj.Genri.2011.DVD9\VIDEO_TS\VTS_01_2.VOB
Формат : MPEG-PS
Размер файла : 1024 Мбайт
Продолжительность : 25 м.
Общий поток : 5701 Кбит/сек

Видео
Идентификатор : 224 (0xE0)
Формат : MPEG Video
Версия формата : Version 2
Профиль формата : Main@Main
Параметр BVOP формата : Да
Параметр матрицы формата : Выборочная
Продолжительность : 25 м.
Вид битрейта : Переменный
Битрейт : 5011 Кбит/сек
Максимальный битрейт : 8500 Кбит/сек
Ширина : 720 пикселей
Высота : 576 пикселей
Соотношение сторон : 16:9
Частота кадров : 25,000 кадров/сек
Стандарт вещания : PAL
Цветовое пространство : YUV
Субдискретизация насыщенности : 4:2:0
Битовая глубина : 8 бит
Тип развёртки : Чересстрочная
Порядок развёртки : Верхнее поле первое
Метод сжатия : С потерями
Бит/(Пиксели*Кадры) : 0.483
Размер потока : 900 Мбайт (88%)

Аудио #1
Идентификатор : 189 (0xBD)-128 (0x80)
Формат : AC-3
Формат/Информация : Audio Coding 3
Расширение режима : CM (complete main)
Режим смешивания : DVD-Video
Продолжительность : 25 м.
Вид битрейта : Постоянный
Битрейт : 384 Кбит/сек
Каналы : 6 каналов
Расположение каналов : Front: L C R, Side: L R, LFE
Частота : 48,0 КГц
Битовая глубина : 16 бит
Метод сжатия : С потерями
Задержка видео : -424 мс.
Размер потока : 69,0 Мбайт (7%)

Аудио #2
Идентификатор : 189 (0xBD)-129 (0x81)
Формат : AC-3
Формат/Информация : Audio Coding 3
Расширение режима : CM (complete main)
Режим смешивания : DVD-Video
Продолжительность : 25 м.
Вид битрейта : Постоянный
Битрейт : 192 Кбит/сек
Каналы : 2 канала
Расположение каналов : Front: L R
Частота : 48,0 КГц
Битовая глубина : 16 бит
Метод сжатия : С потерями
Задержка видео : -392 мс.
Размер потока : 34,5 Мбайт (3%)

Текст
Идентификатор : 189 (0xBD)-32 (0x20)
Формат : RLE
Формат/Информация : Run-length encoding
Режим смешивания : DVD-Video
Задержка видео : 40 мс.










pb.wtf



Скачать Ужасный Генри через торрент http://i1.imageban.ru/out/2011/12/06/d736ef96100bada439214379ef0e0a87.jpg Скачать фильм Ужасный Генри через торрент бесплантно в хорошем качестве Описание: Сорванец Генри — главный хулиган в школе. Его боятся одноклассники и родители. Но когда коварный злодей Вик фон Морщини решает ... 3.6 10 7
Info! Золотая раздача, скачанное не засчитывается.
Торрент: Зарегистрирован [2011-12-06 20:40] · скачан: 15 раз
Статус: √ проверено
Размер: 7.17 GB
Как cкачать? Как скачать Ужасный Генри через торрент | UTorrent

28-11-2019 20:33  

Отключить всю рекламу на сайте

    Дорогой пользователь! Огромная просьба, поблагодарите релизера, оцените раздачу и оставьте свои комментарий, если Вы скачали Ужасный Генри через торрент бесплатно! Внесите свою лепту в развитие PiratBit!
    Комментировать посты могут только пользователи прошедшие не сложную регистрацию
    Показать сообщения:    

    Ужасный Генри через торрент
    Скачать бесплатно Ужасный Генри
    Ужасный Генри скачать торрент
    Ужасный Генри смотреть онлайн
    Cкачать фильм Ужасный Генри бесплатно
    Ужасный Генри скачать торрент в хорошем качестве
    Ужасный Генри смотреть онлайн бесплатно в хорошем качестве


    Вы не можете начинать темы
    Вы не можете отвечать на сообщения
    Вы не можете редактировать свои сообщения
    Вы не можете удалять свои сообщения
    Вы не можете голосовать в опросах
    Вы не можете прикреплять файлы к сообщениям
    Вы можете скачивать файлы