Ссылка на приватное зеркало нашего сайта всего за 1$. Внимание количество ограничено!!!

2 сезон

iTunes

1 сезон

1

2 сезон

2 сезон

iTunes

1 сезон

RePack

30

Ultimate

ВАЖНО

ИГРА 18+

pack

RePack

MK11
pack

Забери бонус

RePack

jed

!!Акция!!

Alien_Rage

RePack

fifa19

RePack

Assassins Creed: Odyssey

RePack

NEED FOR SPEED™ PAYBACK

4 сезон

9 сезон

Бесстыжие 9 сезон

Все сериалы

все сериалы на PB.wtf

RePack

FAR CRY 5
  

Река / The River / Сезон: 01 / Серии: 01-04 из 08 (Жауме Серра, Кеннет Финк, Дин Уайт) [2012, ужасы, триллер, HDTVRip 400p] (SubVoice / Original) pb.wtf

Река через торрент pb.wtf

Размер: 2.86 GB | Добавлен: 8 лет 9 мес. назад | Торрент скачан:19 раз
Скачать  

12-02-2012 18:50 Река Скачать торрент  

[font="serif"]Река / The River
[font="Arial"]Год выпуска: 2012
Страна: США
Жанр: ужасы, драма, приключения, триллер
Продолжительность: 45 мин
Перевод: Любительский (одноголосый закадровый) (SubVoice)
Субтитры: нет
Режиссёр: Жауме Серра, Кеннет Финк, Дин Уайт
В ролях: Брюс Гринвуд, Джо Андерсон, Лесли Хоуп, Элуиз Мамфорд, Пол Блекторн, Томас Кречманн, Дэниэл Зацапа, Шон Паркес, Паулина Гайтан, Джеф Галфер
Описание: В джунглях Южной Америки пропала небольшая экспедиция, отправившаяся разыскивать затерянное племя в верховьях Амазонки. Они не отвечали на вызовы и не прибыли в контрольную точку. Через некоторое время вторая группа исследователей решила отправиться на поиски пропавшей экспедиции. Им предстоит пройти через неимоверные испытания, чтобы понять, что же произошло на самом деле…
Качество: HDTVRip
Формат: AVI
Видео кодек: XviD
Аудио кодек: AC3
Видео: 720x400, 23.976 fps, XviD MPEG-4 ~2000 kbps avg, 0.287 bit/pixel
Аудио #1: 48 kHz, AC3 Dolby Digital, 2/0 (L,R) ch, ~192 kbps (SubVoice)
Аудио #2: 48 kHz, AC3 Dolby Digital, 2/0 (L,R) ch, ~192 kbps (Original)
Перевод: Юлия Бойченко и Евгений Гуренко
Закадровый текст читал: Евгений Киселёв
Работа со звуком: ed_rez
Рип: Dont Touch
IMdB * Sample
General
Complete name : G:\Зарубежные сериалы\Река\River.s01.e0102.avi
Format : AVI
Format/Info : Audio Video Interleave
File size : 1.44 GiB
Duration : 1h 26mn
Overall bit rate : 2 379 Kbps
Writing application : VirtualDubMod 1.5.10.3 | www.virtualdub-fr.org || (build 2550/release)
Writing library : VirtualDubMod build 2550/release
Video
ID : 0
Format : MPEG-4 Visual
Format profile : Advanced Simple@L5
Format settings, BVOP : 1
Format settings, QPel : No
Format settings, GMC : No warppoints
Format settings, Matrix : Default (MPEG)
Codec ID : XVID
Codec ID/Hint : XviD
Duration : 1h 26mn
Bit rate : 1 981 Kbps
Width : 720 pixels
Height : 400 pixels
Display aspect ratio : 16:9
Frame rate : 23.976 fps
Color space : YUV
Chroma subsampling : 4:2:0
Bit depth : 8 bits
Scan type : Progressive
Compression mode : Lossy
Bits/(Pixel*Frame) : 0.287
Stream size : 1.20 GiB (83%)
Writing library : XviD 1.2.1 (UTC 2008-12-04)
Audio #1
ID : 1
Format : AC-3
Format/Info : Audio Coding 3
Mode extension : CM (complete main)
Codec ID : 2000
Duration : 1h 26mn
Bit rate mode : Constant
Bit rate : 192 Kbps
Channel(s) : 2 channels
Channel positions : Front: L R
Sampling rate : 48.0 KHz
Bit depth : 16 bits
Compression mode : Lossy
Stream size : 119 MiB (8%)
Alignment : Split accross interleaves
Interleave, duration : 42 ms (1.00 video frame)
Interleave, preload duration : 500 ms
Audio #2
ID : 2
Format : AC-3
Format/Info : Audio Coding 3
Mode extension : CM (complete main)
Codec ID : 2000
Duration : 1h 26mn
Bit rate mode : Constant
Bit rate : 192 Kbps
Channel(s) : 2 channels
Channel positions : Front: L R
Sampling rate : 48.0 KHz
Bit depth : 16 bits
Compression mode : Lossy
Stream size : 119 MiB (8%)
Alignment : Split accross interleaves
Interleave, duration : 42 ms (1.00 video frame)
Interleave, preload duration : 500 ms
1.01 - The Pilot
1.02 - Эпизод #1.2
Внимание! Раздача ведётся путём добавления новых серий; при каждом добавлении создётся новый торрент. Чтобы начать докачку новой серии, пользователям необходимо сделать следующее: (1) остановить скачивание, (2) удалить старый торрент у себя из клиента (старые серии удалять не надо), (3) скачать новый торрент и запустить его у себя в клиенте вместо старого, при этом указать клиенту путь в старую папку куда и должно происходить скачивание новых серий.
Ваш клиент при этом должен произвести хеширование (проверку) старой папки (если не производит сам - помогите ему сделать это), и будет докачивать только те серии которых у вас ещё нет. Старые серии при этом не удаляются, а продолжают раздаваться!
Eсли вы уже удалили старые серии, то предотвратить повторную закачку старых серий можно, отжав галочку в соответсвующих местах при запуске нового торрента.
Как закачать отдельный файл из торрента или докачать ранее пропущенные файлы торрента!
pb.wtf



Скачать Река через торрент http://i31.fastpic.ru/big/2012/0209/47/1ee2103aaa4e124dccc979dd60d54e47.jpg Скачать фильм Река через торрент бесплантно в хорошем качестве Описание: В джунглях Южной Америки пропала небольшая экспедиция, отправившаяся разыскивать затерянное племя в верховьях Амазонки. Они не ... 4.9 10 14
Info! Золотая раздача, скачанное не засчитывается.
Торрент: Зарегистрирован [2012-02-26 14:20] · скачан: 19 раз
Статус: √ проверено
Размер: 2.86 GB
Как cкачать? Как скачать Река через торрент | qTorrent



Последний раз редактировалось: Stargate_Universe (2012-02-26 14:20), всего редактировалось 4 раз(а)

28-11-2019 20:33  

Отключить всю рекламу на сайте

12-02-2012 19:13 Река Скачать торрент  

Встань на повысь скорость !!!

Уважаемый не указывайте что мне делатьpb.wtf



12-02-2012 19:52 Река Скачать торрент  

VFRC08 писал(а):

Встань на повысь скорость !!!

pb.wtf



17-02-2012 18:08 Река Скачать торрент  

Даешь новые серии!!классный сериал!!!меня цепанул!!!pb.wtf



18-02-2012 13:12 Река Скачать торрент  

Добавлена 4 серия.pb.wtf



    Дорогой пользователь! Огромная просьба, поблагодарите релизера, оцените раздачу и оставьте свои комментарий, если Вы скачали Река через торрент бесплатно! Внесите свою лепту в развитие PiratBit!
    Комментировать посты могут только пользователи прошедшие не сложную регистрацию
    Показать сообщения:    

    Река через торрент
    Скачать бесплатно Река
    Река скачать торрент
    Река смотреть онлайн
    Cкачать фильм Река бесплатно
    Река скачать торрент в хорошем качестве
    Река смотреть онлайн бесплатно в хорошем качестве


    Вы не можете начинать темы
    Вы не можете отвечать на сообщения
    Вы не можете редактировать свои сообщения
    Вы не можете удалять свои сообщения
    Вы не можете голосовать в опросах
    Вы не можете прикреплять файлы к сообщениям
    Вы можете скачивать файлы