Ссылка на приватное зеркало нашего сайта всего за 1$. Внимание количество ограничено!!!

2 сезон

iTunes

1 сезон

1

iTunes

iTunes

iTunes

1 сезон

RePack

30

ИГРА 18+

pack

ВАЖНО

!!Акция!!

Alien_RageХит недели

RePack

MK11
pack

Забери бонус

RePack

jed

!!Акция!!

Alien_Rage

RePack

fifa19

RePack

Assassins Creed: Odyssey

RePack

NEED FOR SPEED™ PAYBACK

4 сезон

9 сезон

Бесстыжие 9 сезон

Все сериалы

все сериалы на PB.wtf

RePack

FAR CRY 5
  

Важняк / Серии: 1-20 из 20 (Илья Хотиненко) [2011 г., Криминал, детектив, DVDRip] pb.wtf

Важняк через торрент pb.wtf

Размер: 9.52 GB | Добавлен: 8 лет 6 мес. назад | Торрент скачан:104 раза
Скачать  

12-04-2012 19:25 Важняк Скачать торрент  

Важняк

Год выпуска: 2011
Страна: Россия
Жанр: Криминал, детектив
Продолжительность: 20 х 00:48:00
Перевод: Не требуется
______________________________________________________
  • Режиссер: Илья Хотиненко
  • Продюссер: Валерий Спирин, Александр Шейн
  • Композитор: Илья Язов

______________________________________________________
В ролях: Валерий Смирнов, Антон Ильичев, Вячеслав Хархота, Дмитрий Антимонов, Ирэна Грегор, Дарья Носик, Маргарита Быстрякова, Вячеслав Мелехов, Вероника Белковская, Павел Чернявский

Описание: Сериал о следователе прокуратуры по особо важным делам — «важняке», который, потеряв близкого ему человека, начинает собственное расследование. Его окружают бандиты, продажные силовики, коррумпированные чиновники...
______________________________________________________
  • Качество: DVDRip
  • Формат: AVI
  • Видео кодек: XviD
  • Аудио кодек: AC3
  • Видео: MPEG4, XviD, 720x332 (2.2:1), 25.000 fps, 1 033 Kbps (0.173 bit/pixel)
  • Аудио: AC-3, 48.0 KHz, 2 ch, 256 Kbps, CBR
--> Перейти к DVD <--_________________________________________________________________________________Скриншоты

скриншот   скриншот   скриншот   скриншот  
_________________________________________________________________________________

Код:

Общее
Полное имя                               : D:\Torrents\Важняк DVDRip [special for Piratbit.net]\1 серия.avi
Формат                                   : AVI
Формат/Информация                        : Audio Video Interleave
Размер файла                             : 454 Мбайт
Продолжительность                        : 48 м.
Общий поток                              : 1300 Кбит/сек
Название фильма                          : Важняк 1 серия
Режиссёр                                 : shuller
Дата записи                              : 12.04.2012
Программа кодирования                    : Lavf53.21.0
Правообладатель                          : Piratbit.net

Видео
Идентификатор                            : 0
Формат                                   : MPEG-4 Visual
Профиль формата                          : Advanced Simple@L5
Параметр BVOP формата                    : 2
Параметр QPel формата                    : Нет
Параметр GMC формата                     : Без точки перехода
Параметр матрицы формата                 : Default (H.263)
Режим смешивания                         : Сжатый битовый поток
Идентификатор кодека                     : XVID
Идентификатор кодека/Подсказка           : XviD
Продолжительность                        : 48 м.
Битрейт                                  : 1033 Кбит/сек
Ширина                                   : 720 пикселей
Высота                                   : 332 пикселя
Соотношение сторон                       : 2,2:1
Частота кадров                           : 25,000 кадров/сек
Цветовое пространство                    : YUV
Субдискретизация насыщенности            : 4:2:0
Битовая глубина                          : 8 бит
Тип развёртки                            : Прогрессивная
Метод сжатия                             : С потерями
Бит/(Пиксели*Кадры)                      : 0.173
Размер потока                            : 361 Мбайт (79%)
Библиотека кодирования                   : XviD 1.2.1 (UTC 2008-12-04)

Аудио
Идентификатор                            : 1
Формат                                   : AC-3
Формат/Информация                        : Audio Coding 3
Расширение режима                        : CM (complete main)
Параметр Endianness формата              : Big
Идентификатор кодека                     : 2000
Продолжительность                        : 48 м.
Вид битрейта                             : Постоянный
Битрейт                                  : 256 Кбит/сек
Каналы                                   : 2 канала
Расположение каналов                     : Front: L R
Частота                                  : 48,0 КГц
Битовая глубина                          : 16 бит
Метод сжатия                             : С потерями
Размер потока                            : 89,3 Мбайт (20%)
Выравнивание                             : Соединение по промежуткам
Продолжительность промежутка             : 32  мс. (0,80 видеокадр)
Язык                                     : un

© Оформление by shullerpb.wtf



Скачать Важняк через торрент http://pic.kartinco.top/images/2000/ocooycgihc.png Скачать фильм Важняк через торрент бесплантно в хорошем качестве Описание: Сериал о следователе прокуратуры по особо важным делам — «важняке», который, потеряв близкого ему человека, начинает собственное ... 10 10 2
Info! Золотая раздача, скачанное не засчитывается.
Торрент: Зарегистрирован [2012-04-12 19:25] · скачан: 104 раз
Статус: √ проверено
Размер: 9.52 GB
Как cкачать? Как скачать Важняк через торрент | qTorrent

% Раздел Тема Автор DL S | L
Наши сериалы [ 15.43 GB ] Важняк / Серии: 1-20 из 20 [2011 ​ DVD9 x 2] shuller Скачать
1 | 0


Последний раз редактировалось: shuller (2012-04-27 13:28), всего редактировалось 1 раз

28-11-2019 20:33  

Отключить всю рекламу на сайте

13-04-2012 05:54 Важняк Скачать торрент  

посмотрел 3 серии и бросил, сильно все не правдоподобно)))))))))))))))pb.wtf



13-04-2012 14:28 Важняк Скачать торрент  

morgunoff Значит не не дождался таки интригующего момента, ну и я тогда тоже не буду смотреть...
pb.wtf



16-04-2012 06:40 Важняк Скачать торрент  

Перезалейте 11-ю сериюю Внутри неё 17-я серия.pb.wtf



16-04-2012 22:53 Важняк Скачать торрент  

papinpa писал(а):

Перезалейте 11-ю сериюю Внутри неё 17-я серия.

???
pb.wtf



    Дорогой пользователь! Огромная просьба, поблагодарите релизера, оцените раздачу и оставьте свои комментарий, если Вы скачали Важняк через торрент бесплатно! Внесите свою лепту в развитие PiratBit!
    Комментировать посты могут только пользователи прошедшие не сложную регистрацию
    Показать сообщения:    

    Важняк через торрент
    Скачать бесплатно Важняк
    Важняк скачать торрент
    Важняк смотреть онлайн
    Cкачать фильм Важняк бесплатно
    Важняк скачать торрент в хорошем качестве
    Важняк смотреть онлайн бесплатно в хорошем качестве


    Вы не можете начинать темы
    Вы не можете отвечать на сообщения
    Вы не можете редактировать свои сообщения
    Вы не можете удалять свои сообщения
    Вы не можете голосовать в опросах
    Вы не можете прикреплять файлы к сообщениям
    Вы можете скачивать файлы