Ссылка на приватное зеркало нашего сайта всего за 1$. Внимание количество ограничено!!!

2 сезон

iTunes

1 сезон

1

iTunes

iTunes

iTunes

1 сезон

RePack

30

ИГРА 18+

pack

ВАЖНО

!!Акция!!

Alien_RageХит недели

RePack

MK11
pack

Забери бонус

RePack

jed

!!Акция!!

Alien_Rage

RePack

fifa19

RePack

Assassins Creed: Odyssey

RePack

NEED FOR SPEED™ PAYBACK

4 сезон

9 сезон

Бесстыжие 9 сезон

Все сериалы

все сериалы на PB.wtf

RePack

FAR CRY 5
  

Ограбление на Бейкер-Стрит / The Bank Job (Роджер Дональдсон) [2008 г., триллер, криминал, боевик, BDRip (1080p), Дубляж] pb.wtf

Ограбление на Бейкер-Стрит через торрент pb.wtf

Размер: 9.13 GB | Добавлен: 8 лет 6 мес. назад | Торрент скачан:88 раз
Скачать  

14-04-2012 08:45 Ограбление на Бейкер-Стрит Скачать торрент  

Ограбление на Бейкер-Стрит / The Bank Job

Год выпуска: 2008
Страна: Великобритания
Жанр: триллер, криминал, боевик
Продолжительность: 01:52:01
Перевод: Профессиональный (полное дублирование)

Режиссер: Роджер Дональдсон

В ролях: Джейсон Стэтхэм, Саффрон Берроуз, Стефен Кэмпбелл Мур, Дэниэл Мейс, Джеймс Фолкнер, Алки Дэвид, Майкл Джибсон, Джорджия Тейлор, Питер Боулз, Элистер Петри, Хэтти Морахэн, Джулиан Льюис Джонс, Эндрю Брук, Руперт Фрейзер, Кристофер Оуэн, Кили Хоуз, Дон Галлахер

Описание: Фильм основан на реальных событиях, происходивших в Великобритании в 1971 году. После 35 лет забвения мы наконец узнаем об одном из самых легендарных ограблений банка в истории Великобритании, когда не было произведено ни одного ареста и не было найдено ни малейшего следа похищенных денег.
Налёт на банк на Бейкер Стрит был инициирован высокопоставленными официальными лицами, пытающимися добраться до заветной банковской ячейки, в которой хозяйка одного из известнейших борделей Лондона хранила секретную информацию. Теперь запрет на разглашение информации об этом ограблении снят британским правительством, и перед нами открывается красочная, лихо закрученная история, полная тайн, сюрпризов и неожиданных поворотов.

Качество: BDRip (1080p)
Формат: MKV
Видео кодек: H.264
Аудио кодек: DTS, AC3
Видео: 1920x816, x264, 23.976 fps, ~8580 kbps
Аудио#1: 48 kHz, DTS, 6ch, ~1510 kbps avg |rus|
Аудио#2: 48 kHz, DTS, 6ch, ~1510 kbps avg |eng|
Аудио#3: 48 kHz, AC3, 2ch, ~64.00 kbps avg |eng| комментарии
Субтитры: русские, английские

Общее
Уникальный идентификатор : 228888978860973338004595582161881806916 (0xAC3269F0F338EDAD8E40468173563844)
Формат : Matroska
Версия формата : Version 1
Размер файла : 9,13 Гбайт
Продолжительность : 1 ч. 52 м.
Общий поток : 11,7 Мбит/сек
Название фильма : -=HANSMER=- (HQ-Films.ws)
Дата кодирования : UTC 2008-07-24 20:01:23
Программа кодирования : mkvmerge v2.2.0 ('Turn It On Again') built on Mar 4 2008 13:20:25
Библиотека кодирования : libebml v0.7.7 + libmatroska v0.8.1
Attachment : Yes / Yes / Yes

Видео
Идентификатор : 1
Формат : AVC
Формат/Информация : Advanced Video Codec
Профиль формата : High@L5.1
Параметр CABAC формата : Да
Параметр ReFrames формата : 16 кадров
Идентификатор кодека : V_MPEG4/ISO/AVC
Продолжительность : 1 ч. 52 м.
Битрейт : 8580 Кбит/сек
Ширина : 1920 пикс.
Высота : 816 пикс.
Соотношение сторон : 2,35:1
Частота кадров : 23,976 кадр/сек
Цветовое пространство : YUV
Подвыборка цветности : 4:2:0
Битовая глубина : 8 бит
Тип развёртки : Прогрессивная
Бит/(Пиксели*Кадры) : 0.228
Размер потока : 6,54 Гбайт (72%)
Заголовок : The.Bank.Job.2008.1080p.BluRay.DTS.x264-ESiR
Библиотека кодирования : x264 core 60 r877M c74a8e2
Настройки программы : cabac=1 / ref=16 / deblock=1:-3:-3 / analyse=0x3:0x133 / me=umh / subme=7 / me-prepass=0 / brdo=1 / mixed_ref=1 / me_range=45 / chroma_me=1 / trellis=0 / 8x8dct=1 / cqm=2 / deadzone=8,8 / chroma_qp_offset=0 / threads=6 / nr=0 / decimate=1 / mbaff=0 / fgo=8 / bframes=16 / b_pyramid=1 / b_adapt=1 / b_bias=0 / direct=3 / wpredb=1 / bime=1 / keyint=250 / keyint_min=25 / scenecut=40(pre) / rc=2pass / bitrate=8580 / ratetol=1.0 / rceq='blurCplx^(1-qComp)' / qcomp=1.00 / qpmin=10 / qpmax=51 / qpstep=4 / cplxblur=20.0 / qblur=0.5 / ip_ratio=1.40 / pb_ratio=1.16 / aq=2:0.80
Язык : English

Аудио #1
Идентификатор : 2
Формат : DTS
Формат/Информация : Digital Theater Systems
Идентификатор кодека : A_DTS
Продолжительность : 1 ч. 52 м.
Вид битрейта : Постоянный
Битрейт : 1510 Кбит/сек
Каналы : 6 каналов
Расположение каналов : Front: L C R, Side: L R, LFE
Частота : 48,0 КГц
Битовая глубина : 24 бит
Метод сжатия : С потерями
Размер потока : 1,18 Гбайт (13%)
Язык : Russian

Аудио #2
Идентификатор : 3
Формат : DTS
Формат/Информация : Digital Theater Systems
Идентификатор кодека : A_DTS
Продолжительность : 1 ч. 52 м.
Вид битрейта : Постоянный
Битрейт : 1510 Кбит/сек
Каналы : 6 каналов
Расположение каналов : Front: L C R, Side: L R, LFE
Частота : 48,0 КГц
Битовая глубина : 24 бит
Метод сжатия : С потерями
Размер потока : 1,18 Гбайт (13%)
Язык : English

Аудио #3
Идентификатор : 4
Формат : Vorbis
Параметр Floor формата : 1
Идентификатор кодека : A_VORBIS
Продолжительность : 1 ч. 52 м.
Вид битрейта : Постоянный
Битрейт : 64,0 Кбит/сек
Минимальный битрейт : 64,0 Кбит/сек
Каналы : 2 канала
Частота : 48,0 КГц
Метод сжатия : С потерями
Размер потока : 51,3 Мбайт (1%)
Заголовок : Commentary
Библиотека кодирования : libVorbis 1.1.1/1.1.2 (UTC 2005-03-04)
Язык : English

Текст #1
Идентификатор : 5
Формат : UTF-8
Идентификатор кодека : S_TEXT/UTF8
Идентификатор кодека/Информация : UTF-8 Plain Text
Язык : Russian

Текст #2
Идентификатор : 6
Формат : ASS
Идентификатор кодека : S_TEXT/ASS
Идентификатор кодека/Информация : Advanced Sub Station Alpha
Метод сжатия : Без потерь
Язык : English

Текст #3
Идентификатор : 7
Формат : ASS
Идентификатор кодека : S_TEXT/ASS
Идентификатор кодека/Информация : Advanced Sub Station Alpha
Метод сжатия : Без потерь
Язык : Bulgarian

Текст #4
Идентификатор : 8
Формат : ASS
Идентификатор кодека : S_TEXT/ASS
Идентификатор кодека/Информация : Advanced Sub Station Alpha
Метод сжатия : Без потерь
Язык : Czech

Текст #5
Идентификатор : 9
Формат : ASS
Идентификатор кодека : S_TEXT/ASS
Идентификатор кодека/Информация : Advanced Sub Station Alpha
Метод сжатия : Без потерь
Язык : Finnish

Текст #6
Идентификатор : 10
Формат : ASS
Идентификатор кодека : S_TEXT/ASS
Идентификатор кодека/Информация : Advanced Sub Station Alpha
Метод сжатия : Без потерь
Язык : Hungarian

Текст #7
Идентификатор : 11
Формат : ASS
Идентификатор кодека : S_TEXT/ASS
Идентификатор кодека/Информация : Advanced Sub Station Alpha
Метод сжатия : Без потерь
Язык : Portuguese

Текст #8
Идентификатор : 12
Формат : ASS
Идентификатор кодека : S_TEXT/ASS
Идентификатор кодека/Информация : Advanced Sub Station Alpha
Метод сжатия : Без потерь
Язык : Romanian

Текст #9
Идентификатор : 13
Формат : ASS
Идентификатор кодека : S_TEXT/ASS
Идентификатор кодека/Информация : Advanced Sub Station Alpha
Метод сжатия : Без потерь
Язык : Swedish
pb.wtf



Скачать Ограбление на Бейкер-Стрит через торрент http://pic.kartinco.top/images/2000/w96zxt7pux.jpg Скачать фильм Ограбление на Бейкер-Стрит через торрент бесплантно в хорошем качестве Описание: Фильм основан на реальных событиях, происходивших в Великобритании в 1971 году. После 35 лет забвения мы наконец узнаем об одном ... 5 10 10
Info! Золотая раздача, скачанное не засчитывается.
Торрент: Зарегистрирован [2012-04-14 08:45] · скачан: 88 раз
Статус: √ проверено
Размер: 9.13 GB
Как cкачать? Как скачать Ограбление на Бейкер-Стрит через торрент | qTorrent

% Раздел Тема Автор DL S | L
Фильмы (Blu-ray, BD-Remux, HDDVD) [ 29.89 GB ] Ограбление на Бейкер-Стрит / The Bank Job [2008 BD Remux авторский авторскийукраинскийпрофессиональный ] Бумер Скачать
1 | 0
Фильмы (Blu-ray, BD-Remux, HDDVD) [ 22.06 GB ] Ограбление на Бейкер-Стрит / The Bank Job [2008 Blu-ray + Оригинал] Бумер Скачать
1 | 1
Фильмы [HD 720p, 1080p] (Хороший звук DUB, MVO) [ 7.95 GB ] Ограбление на Бейкер-Стрит / The Bank Job [2008 BDRip 1080p + Авторский Андрей Гаврилов + Оригинал Бумер Скачать
1 | 0

28-11-2019 20:33  

Отключить всю рекламу на сайте

15-04-2012 18:31 Ограбление на Бейкер-Стрит Скачать торрент  

отличный фильмpb.wtf



28-02-2014 15:40 Ограбление на Бейкер-Стрит Скачать торрент  

Раздайте пожалуйста!!!pb.wtf



    Дорогой пользователь! Огромная просьба, поблагодарите релизера, оцените раздачу и оставьте свои комментарий, если Вы скачали Ограбление на Бейкер-Стрит через торрент бесплатно! Внесите свою лепту в развитие PiratBit!
    Комментировать посты могут только пользователи прошедшие не сложную регистрацию
    Показать сообщения:    

    Ограбление на Бейкер-Стрит через торрент
    Скачать бесплатно Ограбление на Бейкер-Стрит
    Ограбление на Бейкер-Стрит скачать торрент
    Ограбление на Бейкер-Стрит смотреть онлайн
    Cкачать фильм Ограбление на Бейкер-Стрит бесплатно
    Ограбление на Бейкер-Стрит скачать торрент в хорошем качестве
    Ограбление на Бейкер-Стрит смотреть онлайн бесплатно в хорошем качестве


    Вы не можете начинать темы
    Вы не можете отвечать на сообщения
    Вы не можете редактировать свои сообщения
    Вы не можете удалять свои сообщения
    Вы не можете голосовать в опросах
    Вы не можете прикреплять файлы к сообщениям
    Вы можете скачивать файлы