1 сезон

3 сезон

iTunes

1

iTunes

MVO

iTunes

13

1 сезон

RePack

30

Deluxe

pack

Лицензия

ВАЖНО

ИГРА 18+

pack

RePack

MK11

RePack

jed

RePack

fifa19

RePack

RDR2

RePack

NEED FOR SPEED™ PAYBACK

4 сезон

9 сезон

Бесстыжие 9 сезон

Все сериалы

все сериалы на PB.wtf

RePack

FAR CRY 5

Anonymous, доброй ночи, мы катастрофически не успеваем собрать деньги на оплату серверов, помогите нам пожалуйста 5,10,15р., для нас важна любая помощь . В качестве благодарности мы отключим Вам всю рекламу на сайте (укажите свой ник в строку Ваше имя)!

×
  
Magnet ссылка

Стальные Двери / Iron Doors (Стивен Мануэль / Stephen Manuel) [2010, фэнтези, триллер, детектив, DVD9] R5 pb.wtf

Стальные Двери через торрент pb.wtf

Размер: 7.09 GB | Добавлен: 9 лет 3 мес. назад | Торрент скачан:47 раз
Скачать  

14-04-2012 16:21 Стальные Двери Скачать торрент  

[font="Georgia"]
Стальные Двери / Iron Doors / 2D и 3D версии
«No food. No water. No way out.»
Страна: Германия
Студия: Fullfeedback Productions, Water Bear Productions
Жанр: фэнтези, триллер, детектив
Год выпуска: 2010
Мировая премьера: 24 апреля 2010
Дата выхода DVD: 5 апреля 2012
Продолжительность: 01:17:10
Перевод: Профессиональный (одноголосый закадровый) [Лицензия]
Cубтитры: нет
Режиссер: Стивен Мануэль / Stephen Manuel
В ролях: Эксел Ведекинд, Рингано Нуони
Описание: Молодой человек просыпается в комнате без окон, но с огромной железной дверью и железным шкафом, закрытым на замок. На все его крики о помощи и стуки в дверь никто не отзывается. Что ему делать — неизвестно. Понятно только одно: отсчет часов до его смерти уже запущен, ведь без еды и без воды долго ему не протянуть. На второй день он обнаруживает ключ от шкафа, спрятанный в плафоне лампы освещения.
В шкафу обнаруживается зубило молоток и автоген. Запертый в комнате он начинает долбить дыру в бетонной стене. За стеной обнаруживается такая же точно комната с такой же огромной железной дверью. Разница только одна — в комнате стоит гроб, а в нем лежит живая африканская девушка, ни слова не понимающая по-английски. Вдвоем они продолжают игру на выживание.

Бонусы: нет
Семпл 2D Семпл 3D

Релиз группы:
Качество: DVD9 R5
Формат: DVD-Video
Видео кодек: MPEG2
Аудио кодек: AC3
Видео: PAL 16:9 (720x576(0.524)) MPEG Video, 25,000 кадр/сек, 5434 Кбит/сек
Аудио: Russian (Dolby AC3, 6 ch) 448 Кбит/сек, 48,0 КГц



Title:
Size: 7.09 Gb ( 7 433 138 KBytes ) - DVD-9
Enabled regions: 1, 2, 3, 4, 5, 6, 7, 8

VTS_01 :
Play Length: 00:00:16
Video: PAL 16:9 (720x576) VBR, Auto Letterboxed
Audio:
Russian (Dolby AC3, 2 ch)

VTS_02 :
Play Length: 01:17:10
Video: PAL 16:9 (720x576) VBR, Auto Letterboxed
Audio:
Russian (Dolby AC3, 6 ch)

VTS_03 :
Play Length: 01:17:10
Video: PAL 16:9 (720x576) VBR, Auto Letterboxed
Audio:
Russian (Dolby AC3, 6 ch)

Menu Video:
PAL 16:9 (720x576) VBR
Auto Letterboxed
Menu Audio:
Not specified (Dolby AC3, 2 ch)
Menu Subtitles:
Not specified
Menu Russian Language Unit :
Root Menu
Chapter (PTT) Menu
Общее
Полное имя : J:\Новинки 2012\Stal'nye.Dveri.2010.DVD9\VIDEO_TS\VTS_02_1.VOB
Формат : MPEG-PS
Размер файла : 1024 Мбайт
Продолжительность : 23 м.
Режим общего битрейта : Переменный
Общий поток : 6002 Кбит/сек

Видео
Идентификатор : 224 (0xE0)
Формат : MPEG Video
Версия формата : Version 2
Профиль формата : Main@Main
Параметр BVOP формата : Да
Параметр матрицы формата : Выборочная
Продолжительность : 23 м.
Вид битрейта : Переменный
Битрейт : 5434 Кбит/сек
Максимальный битрейт : 8500 Кбит/сек
Ширина : 720 пикселей
Высота : 576 пикселей
Соотношение сторон : 16:9
Частота кадров : 25,000 кадров/сек
Стандарт вещания : PAL
Цветовое пространство : YUV
Субдискретизация насыщенности : 4:2:0
Битовая глубина : 8 бит
Тип развёртки : Прогрессивная
Метод сжатия : С потерями
Бит/(Пиксели*Кадры) : 0.524
Размер потока : 927 Мбайт (91%)

Аудио
Идентификатор : 189 (0xBD)-128 (0x80)
Формат : AC-3
Формат/Информация : Audio Coding 3
Расширение режима : CM (complete main)
Режим смешивания : DVD-Video
Продолжительность : 23 м.
Вид битрейта : Постоянный
Битрейт : 448 Кбит/сек
Каналы : 6 каналов
Расположение каналов : Front: L C R, Side: L R, LFE
Частота : 48,0 КГц
Битовая глубина : 16 бит
Метод сжатия : С потерями
Размер потока : 76,4 Мбайт (7%)










pb.wtf



Скачать Стальные Двери через торрент http://i34.fastpic.ru/big/2012/0414/3d/db8e7d05b99d6c95f2adce1464bde83d.png Скачать фильм Стальные Двери через торрент бесплантно в хорошем качестве Описание: Молодой человек просыпается в комнате без окон, но с огромной железной дверью и железным шкафом, закрытым на замок. На все его ... 4.9 10 9
Info! Золотая раздача, скачанное не засчитывается.
Торрент: Зарегистрирован [2012-04-14 16:21] · скачан: 47 раз
Статус: √ проверено
Размер: 7.09 GB
Как cкачать? Как скачать Стальные Двери через торрент | UTorrent

28-11-2019 20:33  

Отключить всю рекламу на сайте

16-04-2012 10:57 Стальные Двери Скачать торрент  

перевод кстати двуголосый-африканочку женщина озвучивает.а вообще фильм впечатлил.
особенно если себя там представить(не дай конечно...).pb.wtf



    Дорогой пользователь! Огромная просьба, поблагодарите релизера, оцените раздачу и оставьте свои комментарий, если Вы скачали Стальные Двери через торрент бесплатно! Внесите свою лепту в развитие PiratBit!
    Комментировать посты могут только пользователи прошедшие не сложную регистрацию
    Показать сообщения:    

    Стальные Двери через торрент
    Скачать бесплатно Стальные Двери
    Стальные Двери скачать торрент
    Стальные Двери смотреть онлайн
    Cкачать фильм Стальные Двери бесплатно
    Стальные Двери скачать торрент в хорошем качестве
    Стальные Двери смотреть онлайн бесплатно в хорошем качестве


    Вы не можете начинать темы
    Вы не можете отвечать на сообщения
    Вы не можете редактировать свои сообщения
    Вы не можете удалять свои сообщения
    Вы не можете голосовать в опросах
    Вы не можете прикреплять файлы к сообщениям
    Вы можете скачивать файлы