Ссылка на приватное зеркало нашего сайта всего за 1$. Внимание количество ограничено!!!

2 сезон

iTunes

1 сезон

1

2 сезон

2 сезон

iTunes

1 сезон

RePack

30

Ultimate

ВАЖНО

ИГРА 18+

pack

RePack

MK11
pack

Забери бонус

RePack

jed

!!Акция!!

Alien_Rage

RePack

fifa19

RePack

Assassins Creed: Odyssey

RePack

NEED FOR SPEED™ PAYBACK

4 сезон

9 сезон

Бесстыжие 9 сезон

Все сериалы

все сериалы на PB.wtf

RePack

FAR CRY 5
  

Держись, Чарли! / Good Luck Charlie / Сезон: 1 (Серии: 1-26 из 26) (Шелли Дженсен / Shelli Jensen) [2010 г., комедия, WEB-DLRip, Дубляж] pb.wtf

Держись, Чарли! через торрент pb.wtf

Размер: 7.62 GB | Добавлен: 8 лет 7 мес. назад | Торрент скачан:5 раз
Скачать  

15-04-2012 10:44 Держись, Чарли! Скачать торрент  

Держись, Чарли! / Good Luck Charlie

Год выпуска: 2010
Страна: США
Жанр: комедия
Продолжительность: 26 х ~00:22:00
Перевод: Профессиональный (полное дублирование)
Субтитры: отсутствуют

Режиссер: Шелли Дженсен / Shelli Jensen

В ролях: Бриджит Мендлер, Ли Эллин Бэйкер, Брэдли Стивен Перри, Эрик Аллан Крамер, Джейсон Долли, Шэйн Харпер

Описание: После того как мама возвращается к работе медсестры, а папа с головой уходит в свой бизнес, воспитание девочки ложится на плечи ее старшей сестры 15-летней Тедди и братьев — 17-летнего Пи-Джея и 10-летнего Гейба. При этом ребятам приходится сочетать уход за маленькой сестренкой с учебой в школе, одновременно справляясь со всеми трудностями подросткового возраста.

Качество: WEB-DLRip
Формат: AVI
Видео кодек: XviD
Аудио кодек: AC3
Видео: 720x400 (1.80:1), 23.976 fps, XviD build 47 ~1634 kbps avg, 0.24 bit/pixel
Аудио: 48 kHz, AC3 Dolby Digital, 2/0 (L,R) ch, ~192.00 kbps avg

Общее
Формат : AVI
Формат/Информация : Audio Video Interleave
Размер файла : 301 Мбайт
Продолжительность : 22 м.
Общий поток : 1836 Кбит/сек
Программа кодирования : VirtualDubModRus 1.5.10.1 (build 2439/release)
Библиотека кодирования : VirtualDubMod build 2439/release

Видео
Идентификатор : 0
Формат : MPEG-4 Visual
Профиль формата : Advanced Simple@L5
Параметр BVOP формата : 3
Параметр QPel формата : Нет
Параметр GMC формата : Без точки перехода
Параметр матрицы формата : Default (H.263)
Идентификатор кодека : XVID
Идентификатор кодека/Подсказка : XviD
Продолжительность : 22 м.
Битрейт : 1635 Кбит/сек
Ширина : 720 пикс.
Высота : 400 пикс.
Соотношение сторон : 16:9
Частота кадров : 23,976 кадр/сек
Цветовое пространство : YUV
Подвыборка цветности : 4:2:0
Битовая глубина : 8 бит
Тип развёртки : Прогрессивная
Метод сжатия : С потерями
Бит/(Пиксели*Кадры) : 0.237
Размер потока : 268 Мбайт (89%)
Библиотека кодирования : XviD 1.2.0.dev47 (UTC 2006-11-01)

Аудио
Идентификатор : 1
Формат : AC-3
Формат/Информация : Audio Coding 3
Расширение режима : CM (complete main)
Идентификатор кодека : 2000
Продолжительность : 22 м.
Вид битрейта : Постоянный
Битрейт : 192 Кбит/сек
Каналы : 2 канала
Расположение каналов : Front: L R
Частота : 48,0 КГц
Битовая глубина : 16 бит
Метод сжатия : С потерями
Размер потока : 31,4 Мбайт (10%)
Выравнивание : Разделение по промежуткам
Продолжительность промежутка : 42 мс. (1,00 видеокадр)
Время предзагрузки промежутка : 500 ms
pb.wtf



Скачать Держись, Чарли! через торрент http://pic.kartinco.top/images/2000/v6wgquzgoy.jpg Скачать фильм Держись, Чарли! через торрент бесплантно в хорошем качестве Описание: После того как мама возвращается к работе медсестры, а папа с головой уходит в свой бизнес, воспитание девочки ложится на плечи ... 5 10 2
Info! Золотая раздача, скачанное не засчитывается.
Торрент: Зарегистрирован [2012-04-15 10:44] · скачан: 5 раз
Статус: √ проверено
Размер: 7.62 GB
Как cкачать? Как скачать Держись, Чарли! через торрент | qTorrent



Последний раз редактировалось: markfiter (2012-04-15 11:22), всего редактировалось 1 раз

28-11-2019 20:33  

Отключить всю рекламу на сайте

    Дорогой пользователь! Огромная просьба, поблагодарите релизера, оцените раздачу и оставьте свои комментарий, если Вы скачали Держись, Чарли! через торрент бесплатно! Внесите свою лепту в развитие PiratBit!
    Комментировать посты могут только пользователи прошедшие не сложную регистрацию
    Показать сообщения:    

    Держись, Чарли! через торрент
    Скачать бесплатно Держись, Чарли!
    Держись, Чарли! скачать торрент
    Держись, Чарли! смотреть онлайн
    Cкачать фильм Держись, Чарли! бесплатно
    Держись, Чарли! скачать торрент в хорошем качестве
    Держись, Чарли! смотреть онлайн бесплатно в хорошем качестве


    Вы не можете начинать темы
    Вы не можете отвечать на сообщения
    Вы не можете редактировать свои сообщения
    Вы не можете удалять свои сообщения
    Вы не можете голосовать в опросах
    Вы не можете прикреплять файлы к сообщениям
    Вы можете скачивать файлы