1 сезон

1 сезон

iTunes

1

КиноПоиск HD

Кинопоиск HD

iTunes

13

1 сезон

RePack

30

Новинка

ВАЖНО

ИГРА 18+

pack

RePack

MK11
pack

Легкие деньги

RePack

jed

RePack

fifa19

RePack

RDR2

RePack

NEED FOR SPEED™ PAYBACK

4 сезон

9 сезон

Бесстыжие 9 сезон

Все сериалы

все сериалы на PB.wtf

RePack

FAR CRY 5
  
Magnet ссылка

Набережная Орфевр, 36 / 36 Quai des Orfèvres (Оливье Маршаль) [2004 г., триллер, боевик, драма, криминал, BDRip-AVC, DUB (лицензия)] pb.wtf

Набережная Орфевр, 36 через торрент pb.wtf

Размер: 2.68 GB | Добавлен: 8 лет 11 мес. назад | Торрент скачан:136 раз
Скачать  

15-04-2012 14:04 Набережная Орфевр, 36 Скачать торрент  

Набережная Орфевр, 36 / 36 Quai des Orfèvres

Год выпуска: 2004
Страна: Франция
Жанр: триллер, боевик, драма, криминал
Продолжительность: 01:51:01
Перевод: Дубляж (Лицензия) R5
Тип релиза: BDRip

Режиссер: Оливье Маршаль
Продюссер: Грегори Барри, Франк Коро, Сирил Колбо-Жустин
Сценарий: Оливье Маршаль, Франк Манкузо, Жюльен Рапно

Премьера в мире: 24 ноября 2004

В ролях: Жерар Депардье, Орор Отой, Андре Дюссоллье, Даниель Отей, Валерия Голино, Даниель Дюваль, Милен Демонжо, Катрин Маршаль, Франсис Рено, Ален Фиглаж



В Париже вот уже несколько месяцев хозяйничает банда неуловимых и опасных преступников. Чуть ли не каждый день они умудряются совершать нападения на хорошо охраняемые инкассаторские машины, и каждый раз выходят сухими из воды.

У двух талантливых и амбициозных полицейских — Лео Вринкса, начальника Отдела по борьбе с бандитизмом, и Дэниса Клейна, главы Отдела по борьбе с организованной преступностью, появляется реальный шанс подняться по служебной лестнице. Шеф полиции Роберт Манчини, их добрый друг, ставит им следующее условие: тот, кто сумеет разоружить банду налетчиков, станет Шефом полиции знаменитого Управления по адресу Набережная Орфевр, 36. Между двумя суперполицейскими разворачивается настоящая борьба.

Бывшие друзья, а ныне непримиримые враги, испытывают разногласия буквально во всем — начиная от методов поимки преступников и заканчивая выбором подчиненных. Кроме того, вот уже много лет между ними стоит прекрасная женщина Камилль Вринкс. А если дело касается женщины, то компромиссов быть не может!


Качество: BDRip-AVC
Формат: MKV
Видео кодек: H.26x
Аудио кодек: AC3
Видео: MPEG-4 AVC Video 3000 kbps 1280x544p / 23,976 fps / 16:9 / High Profile 4.1
Аудио#1: Русский DUB R5 Dolby Digital Audio 5.1 / 48 kHz / 448 kbps
Релиз от: H001igan
*Набережная Орфевр, 36 — адрес штаб-квартиры французской криминальной полиции.

*В роли Лолы Вринкс снялась дочь Даниэля Отёя Аврора. Сам Даниэль сыграл её отца Лео Вринкса.

*В фильме снялись сразу 3 актёра, становивишиеся лауреатами премии «Сезар» за лучшую мужскую роль — Жерар Депардьё, Даниэль Отёй и Андре Дюссолье.

*Картина стала третьей полноценной совместной работой в карьерах Даниеля Отейя и Жерара Депардье.

*Оливье Маршаль знаком с полицейской работой не понаслышке - в молодости он сам работал полицейским офицером.








Орфевр, 36 [36 Quai des Orfevres].mkv
Format : Matroska
Format version : Version 2
File size : 2.68 GiB
Duration : 1h 51mn
Overall bit rate mode : Variable
Overall bit rate : 3 455 Kbps
Encoded date : UTC 2012-04-15 13:22:45
Writing application : mkvmerge v5.5.0 ('Healer') built on Apr 6 2012 21:43:24
Writing library : libebml v1.2.3 + libmatroska v1.3.0

Video
ID : 1
Format : AVC
Format/Info : Advanced Video Codec
Format profile : High@L4.1
Format settings, CABAC : Yes
Format settings, ReFrames : 3 frames
Muxing mode : Header stripping
Codec ID : V_MPEG4/ISO/AVC
Duration : 1h 51mn
Bit rate mode : Variable
Bit rate : 3 000 Kbps
Maximum bit rate : 14.0 Mbps
Width : 1 280 pixels
Height : 544 pixels
Display aspect ratio : 2.35:1
Frame rate : 23.976 fps
Color space : YUV
Chroma subsampling : 4:2:0
Bit depth : 8 bits
Scan type : Progressive
Bits/(Pixel*Frame) : 0.180
Stream size : 2.28 GiB (85%)
Title : Video
Writing library : x264 core 120 r2164 da19765
Encoding settings : cabac=1 / ref=4 / deblock=1:-1:-1 / analyse=0x3:0x133 / me=umh / subme=10 / psy=1 / psy_rd=1.00:0.15 / mixed_ref=1 / me_range=24 / chroma_me=1 / trellis=2 / 8x8dct=1 / cqm=0 / deadzone=21,11 / fast_pskip=1 / chroma_qp_offset=-3 / threads=6 / sliced_threads=0 / slices=4 / nr=0 / decimate=1 / interlaced=0 / bluray_compat=0 / constrained_intra=0 / bframes=3 / b_pyramid=1 / b_adapt=2 / b_bias=0 / direct=3 / weightb=1 / open_gop=0 / weightp=0 / keyint=23 / keyint_min=1 / scenecut=40 / intra_refresh=0 / rc_lookahead=24 / rc=2pass / mbtree=1 / bitrate=3000 / ratetol=1.0 / qcomp=0.60 / qpmin=10 / qpmax=51 / qpstep=4 / cplxblur=20.0 / qblur=0.5 / vbv_maxrate=14000 / vbv_bufsize=14500 / nal_hrd=vbr / ip_ratio=1.40 / aq=1:1.00
Language : English
Default : Yes
Forced : No

Audio
ID : 2
Format : AC-3
Format/Info : Audio Coding 3
Mode extension : CM (complete main)
Muxing mode : Header stripping
Codec ID : A_AC3
Duration : 1h 51mn
Bit rate mode : Constant
Bit rate : 448 Kbps
Channel(s) : 6 channels
Channel positions : Front: L C R, Side: L R, LFE
Sampling rate : 48.0 KHz
Bit depth : 16 bits
Compression mode : Lossy
Stream size : 356 MiB (13%)
Title : DUB R5 Dolby Digital Audio 5.1 / 48 kHz / 448 kbps
Language : Russian
Default : Yes
Forced : No

Text #1
ID : 3
Format : PGS
Muxing mode : zlib
Codec ID : S_HDMV/PGS
Codec ID/Info : The same subtitle format used on BDs/HD-DVDs
Title : PGS
Language : English
Default : No
Forced : No

Text #2
ID : 4
Format : UTF-8
Codec ID : S_TEXT/UTF8
Codec ID/Info : UTF-8 Plain Text
Title : English Full
Language : English
Default : No
Forced : No

Text #3
ID : 5
Format : UTF-8
Codec ID : S_TEXT/UTF8
Codec ID/Info : UTF-8 Plain Text
Title : Russian
Language : Russian
Default : No
Forced : No

Menu
00:00:00.000 : en:Chapter 1
00:09:27.000 : en:Chapter 2
00:18:25.320 : en:Chapter 3
00:28:28.080 : en:Chapter 4
00:36:51.720 : en:Chapter 5
00:46:36.240 : en:Chapter 6
00:56:22.920 : en:Chapter 7
01:05:43.800 : en:Chapter 8
01:11:51.240 : en:Chapter 9
01:20:10.920 : en:Chapter 10
01:32:09.960 : en:Chapter 11
01:41:10.320 : en:Chapter 12

pb.wtf



Скачать Набережная Орфевр, 36 через торрент http://s018.radikal.ru/i504/1502/f3/6031a3592af2.jpg Скачать фильм Набережная Орфевр, 36 через торрент бесплантно в хорошем качестве В ролях: Жерар Депардье, Орор Отой, Андре Дюссоллье, Даниель Отей, Валерия Голино, Даниель Дюваль, Милен Демонжо, Катрин Маршаль, Франсис ... 4.9 10 14
Info! Золотая раздача, скачанное не засчитывается.
Торрент: Зарегистрирован [2012-04-15 14:04] · скачан: 136 раз
Статус: √ проверено
Размер: 2.68 GB
Как cкачать? Как скачать Набережная Орфевр, 36 через торрент | UTorrent

% Раздел Тема Автор DL S | L
Фильмы 2001-2005 [ 2.03 GB ] Набережная Орфевр 36 / 36 Quai des Orfevres [2004 HDRip-AVC DUB + Оригинал] lev1244v Скачать
1 | 0


Последний раз редактировалось: Ghost_07 (2015-02-28 06:36), всего редактировалось 6 раз(а)

28-11-2019 20:33  

Отключить всю рекламу на сайте

15-04-2012 14:27 Набережная Орфевр, 36 Скачать торрент  

Ghost_07 скриншоты где дел*?pb.wtf



15-04-2012 14:53 Набережная Орфевр, 36 Скачать торрент  

А где скрины?pb.wtf



15-04-2012 14:59 Набережная Орфевр, 36 Скачать торрент  

"Скрины" на месте.pb.wtf



    Дорогой пользователь! Огромная просьба, поблагодарите релизера, оцените раздачу и оставьте свои комментарий, если Вы скачали Набережная Орфевр, 36 через торрент бесплатно! Внесите свою лепту в развитие PiratBit!
    Комментировать посты могут только пользователи прошедшие не сложную регистрацию
    Показать сообщения:    

    Набережная Орфевр, 36 через торрент
    Скачать бесплатно Набережная Орфевр, 36
    Набережная Орфевр, 36 скачать торрент
    Набережная Орфевр, 36 смотреть онлайн
    Cкачать фильм Набережная Орфевр, 36 бесплатно
    Набережная Орфевр, 36 скачать торрент в хорошем качестве
    Набережная Орфевр, 36 смотреть онлайн бесплатно в хорошем качестве


    Вы не можете начинать темы
    Вы не можете отвечать на сообщения
    Вы не можете редактировать свои сообщения
    Вы не можете удалять свои сообщения
    Вы не можете голосовать в опросах
    Вы не можете прикреплять файлы к сообщениям
    Вы можете скачивать файлы