Ссылка на приватное зеркало нашего сайта всего за 1$. Внимание количество ограничено!!!

2 сезон

iTunes

1 сезон

1

iTunes

iTunes

iTunes

1 сезон

RePack

30

ИГРА 18+

pack

ВАЖНО

!!Акция!!

Alien_RageХит недели

RePack

MK11
pack

Забери бонус

RePack

jed

!!Акция!!

Alien_Rage

RePack

fifa19

RePack

Assassins Creed: Odyssey

RePack

NEED FOR SPEED™ PAYBACK

4 сезон

9 сезон

Бесстыжие 9 сезон

Все сериалы

все сериалы на PB.wtf

RePack

FAR CRY 5
  

Добро пожаловать в Зомбилэнд / Zombieland (Рубен Фляйшер) [2009 г., боевик, комедия, ужасы, BDRip (720p), Дубляж + оригинал] pb.wtf

Добро пожаловать в Зомбилэнд через торрент pb.wtf

Размер: 4.37 GB | Добавлен: 8 лет 6 мес. назад | Торрент скачан:17 раз
Скачать  

16-04-2012 09:06 Добро пожаловать в Зомбилэнд Скачать торрент  

Добро пожаловать в Зомбилэнд / Zombieland

Год выпуска: 2009
Страна: США
Жанр: боевик, комедия, ужасы
Продолжительность: 01:27:42
Перевод: Профессиональный (полное дублирование) + оригинал

Режиссер: Рубен Фляйшер

В ролях: Вуди Харрельсон, Джесси Айзенберг, Эмма Стоун, Эбигейл Бреслин, Эмбер Хёрд, Билл Мюррэй, Дерек Граф, Майк Уайт, Джейкоб Дж. Экинс, Хантер Элдридж

Описание: После того, как США были разорены в результате нашествия зомби, от населения остаётся небольшая группа выживших, которая скитается по стране от побережья к побережью, сражаясь с живыми мертвецами. Однажды они останавливаются в парке развлечений, надеясь на то, что там они будут в безопасности.

Качество: BDRip (720p)
Формат: MKV
Видео кодек: H.264
Аудио кодек: AC3, DTS
Видео: 1280x534, ~5178 kbps, 23.976 fps
Аудио#1: AC3, 6ch, 48 KHz, ~448 kbps |rus|
Аудио#2: DTS , 6ch, 48 KHz, ~1536 kbps |eng|
Субтитры: русские (Voronine), русские (Goblin), русские (по дубляжу от Outlander2WD), русские (для слабослышащих Voronine), русские (надписи и пр. Voronine), русские (надписи и пр. timyrovecTM), английские


Общее
Уникальный идентификатор : 245256431428181597062272286611583567684 (0xB882ABA81F94E1ABA0E9F4B632E08744)
Формат : Matroska
Версия формата : Version 2
Размер файла : 4,37 Гбайт
Продолжительность : 1 ч. 27 м.
Общий поток : 7136 Кбит/сек
Дата кодирования : UTC 2010-01-26 08:46:13
Программа кодирования : mkvmerge v3.0.0 ('Hang up your Hang-Ups') built on Dec 12 2009 15:20:35
Библиотека кодирования : libebml v0.7.9 + libmatroska v0.8.1

Видео
Идентификатор : 1
Формат : AVC
Формат/Информация : Advanced Video Codec
Профиль формата : High@L4.1
Параметр CABAC формата : Да
Параметр ReFrames формата : 12 кадров
Идентификатор кодека : V_MPEG4/ISO/AVC
Продолжительность : 1 ч. 27 м.
Битрейт : 5178 Кбит/сек
Ширина : 1280 пикс.
Высота : 534 пикс.
Соотношение сторон : 2,40:1
Частота кадров : 23,976 кадр/сек
Цветовое пространство : YUV
Подвыборка цветности : 4:2:0
Битовая глубина : 8 бит
Тип развёртки : Прогрессивная
Бит/(Пиксели*Кадры) : 0.316
Размер потока : 3,09 Гбайт (71%)
Библиотека кодирования : x264 core 84 r1400M 20fa784
Настройки программы : cabac=1 / ref=12 / deblock=1:-3:-3 / analyse=0x3:0x113 / me=umh / subme=10 / psy=1 / psy_rd=1.0:0.1 / mixed_ref=1 / me_range=32 / chroma_me=1 / trellis=2 / 8x8dct=1 / cqm=0 / deadzone=21,11 / fast_pskip=0 / chroma_qp_offset=-3 / threads=6 / sliced_threads=0 / nr=0 / decimate=0 / mbaff=0 / constrained_intra=0 / bframes=8 / b_pyramid=2 / b_adapt=2 / b_bias=0 / direct=3 / wpredb=1 / wpredp=2 / keyint=240 / keyint_min=24 / scenecut=40 / intra_refresh=0 / rc_lookahead=80 / rc=2pass / mbtree=1 / bitrate=5178 / ratetol=1.0 / qcomp=0.70 / qpmin=10 / qpmax=51 / qpstep=4 / cplxblur=20.0 / qblur=0.5 / ip_ratio=1.40 / aq=1:0.80 / pulldown=0 / nal_hrd=0
Язык : English

Аудио #1
Идентификатор : 2
Формат : AC-3
Формат/Информация : Audio Coding 3
Расширение режима : CM (complete main)
Идентификатор кодека : A_AC3
Продолжительность : 1 ч. 27 м.
Вид битрейта : Постоянный
Битрейт : 448 Кбит/сек
Каналы : 6 каналов
Расположение каналов : Front: L C R, Side: L R, LFE
Частота : 48,0 КГц
Битовая глубина : 16 бит
Метод сжатия : С потерями
Размер потока : 281 Мбайт (6%)
Заголовок : AC3 5.1 448 kbps
Язык : Russian

Аудио #2
Идентификатор : 3
Формат : DTS
Формат/Информация : Digital Theater Systems
Идентификатор кодека : A_DTS
Продолжительность : 1 ч. 27 м.
Вид битрейта : Постоянный
Битрейт : 1510 Кбит/сек
Каналы : 6 каналов
Расположение каналов : Front: L C R, Side: L R, LFE
Частота : 48,0 КГц
Битовая глубина : 24 бит
Метод сжатия : С потерями
Размер потока : 947 Мбайт (21%)
Заголовок : DTS 5.1 1536 kbps
Язык : English

Текст #1
Идентификатор : 4
Формат : UTF-8
Идентификатор кодека : S_TEXT/UTF8
Идентификатор кодека/Информация : UTF-8 Plain Text
Заголовок : Voronine
Язык : Russian

Текст #2
Идентификатор : 5
Формат : UTF-8
Идентификатор кодека : S_TEXT/UTF8
Идентификатор кодека/Информация : UTF-8 Plain Text
Заголовок : Goblin
Язык : Russian

Текст #3
Идентификатор : 6
Формат : UTF-8
Идентификатор кодека : S_TEXT/UTF8
Идентификатор кодека/Информация : UTF-8 Plain Text
Заголовок : Dub Outlander2WD
Язык : Russian

Текст #4
Идентификатор : 7
Формат : UTF-8
Идентификатор кодека : S_TEXT/UTF8
Идентификатор кодека/Информация : UTF-8 Plain Text
Заголовок : SDH Voronine
Язык : Russian

Текст #5
Идентификатор : 8
Формат : UTF-8
Идентификатор кодека : S_TEXT/UTF8
Идентификатор кодека/Информация : UTF-8 Plain Text
Язык : English

Текст #6
Идентификатор : 9
Формат : UTF-8
Идентификатор кодека : S_TEXT/UTF8
Идентификатор кодека/Информация : UTF-8 Plain Text
Заголовок : Tol'ko nadpisi Voronine
Язык : Russian

Текст #7
Идентификатор : 10
Формат : UTF-8
Идентификатор кодека : S_TEXT/UTF8
Идентификатор кодека/Информация : UTF-8 Plain Text
Заголовок : Tol'ko nadpisi timyrovecTM
Язык : Russian
pb.wtf



Скачать Добро пожаловать в Зомбилэнд через торрент http://pic.kartinco.top/images/2000/8w5om3yrbw.jpg Скачать фильм Добро пожаловать в Зомбилэнд через торрент бесплантно в хорошем качестве Описание: После того, как США были разорены в результате нашествия зомби, от населения остаётся небольшая группа выживших, которая ... 10 10 1
Info! Золотая раздача, скачанное не засчитывается.
Торрент: Зарегистрирован [2012-04-16 09:06] · скачан: 17 раз
Статус: √ проверено
Размер: 4.37 GB
Как cкачать? Как скачать Добро пожаловать в Зомбилэнд через торрент | qTorrent



Последний раз редактировалось: markfiter (2012-04-16 09:40), всего редактировалось 1 раз

28-11-2019 20:33  

Отключить всю рекламу на сайте

16-04-2012 11:07 Добро пожаловать в Зомбилэнд Скачать торрент  

звуковая дорожка Гоблина чистая?pb.wtf



16-04-2012 11:25 Добро пожаловать в Зомбилэнд Скачать торрент  

FeDoZ писал(а):

звуковая дорожка Гоблина чистая?

звуковой дорожки гоблина нету. то субтитры (Гоблин)pb.wtf



    Дорогой пользователь! Огромная просьба, поблагодарите релизера, оцените раздачу и оставьте свои комментарий, если Вы скачали Добро пожаловать в Зомбилэнд через торрент бесплатно! Внесите свою лепту в развитие PiratBit!
    Комментировать посты могут только пользователи прошедшие не сложную регистрацию
    Показать сообщения:    

    Добро пожаловать в Зомбилэнд через торрент
    Скачать бесплатно Добро пожаловать в Зомбилэнд
    Добро пожаловать в Зомбилэнд скачать торрент
    Добро пожаловать в Зомбилэнд смотреть онлайн
    Cкачать фильм Добро пожаловать в Зомбилэнд бесплатно
    Добро пожаловать в Зомбилэнд скачать торрент в хорошем качестве
    Добро пожаловать в Зомбилэнд смотреть онлайн бесплатно в хорошем качестве


    Вы не можете начинать темы
    Вы не можете отвечать на сообщения
    Вы не можете редактировать свои сообщения
    Вы не можете удалять свои сообщения
    Вы не можете голосовать в опросах
    Вы не можете прикреплять файлы к сообщениям
    Вы можете скачивать файлы