2 сезон

iTunes

MVO

1

2 сезон

iTunes

iTunes

1 сезон

RePack

30

Ultimate

ВАЖНО

ИГРА 18+

pack

RePack

MK11
pack

Легкие деньги

RePack

jed

RePack

fifa19

RePack

RDR2

RePack

NEED FOR SPEED™ PAYBACK

4 сезон

9 сезон

Бесстыжие 9 сезон

Все сериалы

все сериалы на PB.wtf

RePack

FAR CRY 5

Anonymous, доброй ночи, мы не успеваем собрать деньги на оплату серверов за декабрь и январь, помогите нам пожалуйста в это трудное время. В качестве благодарности мы отключим Вам всю рекламу на сайте (укажите свой ник в строку Ваше имя)!

×
  
Magnet ссылка

Блудливая Калифорния (Калифорнийский блудник) / Californication (Сезон: 5) (серий 1-8 из 12) (Том Капинос) [2012 г., комедия, драма, HDTV 1080i, Профессиональный (многоголосый) «Новамедиа»] pb.wtf

Блудливая Калифорния через торрент pb.wtf

Размер: 19.13 GB | Добавлен: 8 лет 9 мес. назад | Торрент скачан:1 раз
Скачать  

16-04-2012 13:38 Блудливая Калифорния Скачать торрент  

Блудливая Калифорния (Калифорнийский блудник) / Californication
Он нужен Хип-Хопу
Год выпуска: 2012
Страна: США | Showtime
Жанр: комедия, драма
Продолжительность: ~30мин.
Перевод: Профессиональный(многоголосый) студия «Новамедиа»

Режиссер: Том Капинос


Внимание! В сериале присутствует ненормативная лексика и сцены с обнаженной натурой!


В ролях: Дэвид Духовны, Наташа МакЭлхоун, Мэделин Мартин, Эван Хандлер, Памела Адлон и др.

Описание: После трех лет в Нью-Йорке, где всё было просто и не было обязательств, писатель Хэнк Муди возвращается в Калифорнию. У его бывшей — новый муж и домик за белым забором, у дочери — новый парень. А что ждет Хэнка в Лос-Анджелесе?


Качество: HDTV 1080i
Формат: MKV
Видео кодек: H.26x
Аудио кодек: AC3
Видео: 1920x1080 at 29.970 fps, MPEG-2, ~10.84 Mbps avg
Аудио#1: Russian: 48 kHz, AC3, 3/2 (L,C,R,l,r) + LFE ch, ~384.00 kbps avg |Многоголосый закадровый, студия «Новамедиа»|
Аудио#2: English: 48 kHz, AC3, 3/2 (L,C,R,l,r) + LFE ch, ~384.00 kbps avg
Внимание!Раздача ведётся путём добавления новых серий; при каждом добавлении создётся новый торрент. Чтобы начать докачку новой серии, пользователям необходимо сделать следующее:
(1) остановить скачивание,
(2) удалить старый торрент у себя из клиента (старые серии удалять не надо),
(3) скачать новый торрент и запустить его у себя в клиенте вместо старого, при этом указать клиенту путь в старую папку куда и должно происходить скачивание новых серий.

Ваш клиент при этом должен произвести хеширование (проверку) старой папки (если не производит сам - помогите ему сделать это), и будет докачивать только те серии которых у вас ещё нет. Старые серии при этом не удаляются, а продолжают раздаваться!

Eсли вы уже удалили старые серии, то предотвратить повторную закачку старых серий можно, отжав галочку в соответсвующих местах при запуске нового торрента. По возможности, желательно не удалять старые серии как можно дольше чтобы релизёр не столько продолжал раздавать старые серии, а смог сконцентрироваться на новых.

General
ID : 1 (0x1)
Complete name : D:\Тореннты\Californication.S05.1080i.Rus.Eng.HDCLUB\Californication.S05E01.1080i.Rus.Eng.HDCLUB.ts
Format : MPEG-TS
File size : 2.46 GiB
Duration : 29mn 27s
Overall bit rate mode : Variable
Overall bit rate : 12.0 Mbps
Maximum Overall bit rate : 35.5 Mbps

Video
ID : 4113 (0x1011)
Menu ID : 1 (0x1)
Format : MPEG Video
Format version : Version 2
Format profile : Main@High
Format settings, BVOP : Yes
Format settings, Matrix : Custom
Codec ID : 2
Duration : 29mn 27s
Bit rate mode : Variable
Bit rate : 10.6 Mbps
Maximum bit rate : 14.7 Mbps
Width : 1 920 pixels
Height : 1 080 pixels
Display aspect ratio : 16:9
Frame rate : 29.970 fps
Color space : YUV
Chroma subsampling : 4:2:0
Bit depth : 8 bits
Compression mode : Lossy
Bits/(Pixel*Frame) : 0.171
Stream size : 2.18 GiB (89%)

Audio #1
ID : 4352 (0x1100)
Menu ID : 1 (0x1)
Format : AC-3
Format/Info : Audio Coding 3
Mode extension : CM (complete main)
Codec ID : 129
Duration : 29mn 26s
Bit rate mode : Constant
Bit rate : 384 Kbps
Channel(s) : 6 channels
Channel positions : Front: L C R, Side: L R, LFE
Sampling rate : 48.0 KHz
Bit depth : 16 bits
Compression mode : Lossy
Delay relative to video : -67ms
Stream size : 80.9 MiB (3%)
Language : Russian

Audio #2
ID : 4353 (0x1101)
Menu ID : 1 (0x1)
Format : AC-3
Format/Info : Audio Coding 3
Mode extension : CM (complete main)
Codec ID : 129
Duration : 29mn 26s
Bit rate mode : Constant
Bit rate : 384 Kbps
Channel(s) : 6 channels
Channel positions : Front: L C R, Side: L R, LFE
Sampling rate : 48.0 KHz
Bit depth : 16 bits
Compression mode : Lossy
Delay relative to video : -38ms
Stream size : 80.9 MiB (3%)
Language : English

Text #1
ID : 4113 (0x1011)-608-1
Menu ID : 1 (0x1)
Format : EIA-608
Muxing mode : A/53 / DTVCC Transport
Muxing mode, more info : Muxed in Video #1
Duration : 29mn 27s
Bit rate mode : Constant
Stream size : 0.00 Byte (0%)

Text #2
ID : 4113 (0x1011)-608-2
Menu ID : 1 (0x1)
Format : EIA-608
Muxing mode : A/53 / DTVCC Transport
Muxing mode, more info : Muxed in Video #1
Duration : 29mn 27s
Bit rate mode : Constant
Stream size : 0.00 Byte (0%)

Text #3
ID : 4113 (0x1011)-1
Menu ID : 1 (0x1)
Format : EIA-708
Muxing mode : A/53 / DTVCC Transport
Muxing mode, more info : Muxed in Video #1
Duration : 29mn 27s
Bit rate mode : Constant
Stream size : 0.00 Byte (0%)

pb.wtf



Скачать Блудливая Калифорния через торрент http://pic.kartinco.top/images/2000/cc8xir5f14.jpg Скачать фильм Блудливая Калифорния через торрент бесплантно в хорошем качестве Описание: После трех лет в Нью-Йорке, где всё было просто и не было обязательств, писатель Хэнк Муди возвращается в Калифорнию. У его ... 10 10 1
Info! Золотая раздача, скачанное не засчитывается.
Торрент: Зарегистрирован [2012-04-16 13:38] · скачан: 1 раз
Статус: √ проверено
Размер: 19.13 GB
Как cкачать? Как скачать Блудливая Калифорния через торрент | UTorrent

28-11-2019 20:33  

Отключить всю рекламу на сайте

16-04-2012 14:37 Блудливая Калифорния Скачать торрент  

Понял-понял, каюсь, сейчас обновлю.
И да раз уж одобрили исправьте:

~Relizer~ писал(а):

Формат: MKV

на

Messa-fan писал(а):

Формат: ts

и

~Relizer~ писал(а):

Видео кодек: H.26x

на

Messa-fan писал(а):

Видео кодек: MPEG2

За подтверждением обратитесь в свой MI.pb.wtf



    Дорогой пользователь! Огромная просьба, поблагодарите релизера, оцените раздачу и оставьте свои комментарий, если Вы скачали Блудливая Калифорния через торрент бесплатно! Внесите свою лепту в развитие PiratBit!
    Комментировать посты могут только пользователи прошедшие не сложную регистрацию
    Показать сообщения:    

    Блудливая Калифорния через торрент
    Скачать бесплатно Блудливая Калифорния
    Блудливая Калифорния скачать торрент
    Блудливая Калифорния смотреть онлайн
    Cкачать фильм Блудливая Калифорния бесплатно
    Блудливая Калифорния скачать торрент в хорошем качестве
    Блудливая Калифорния смотреть онлайн бесплатно в хорошем качестве


    Вы не можете начинать темы
    Вы не можете отвечать на сообщения
    Вы не можете редактировать свои сообщения
    Вы не можете удалять свои сообщения
    Вы не можете голосовать в опросах
    Вы не можете прикреплять файлы к сообщениям
    Вы можете скачивать файлы