Ссылка на приватное зеркало всего за 1$. Внимание количество ограничено!!!

iTunes

1+1

iTunes

мы

WEB-DL

1

iTunes

Чернобыль

iTunes

Ральф против интернета

Лицензия

ПШазам

Лицензия

Оно 2

Лицензия

30
pack

Вам бонус

ВАЖНО

!!Акция!!

Alien_RageХит недели

RePack

Resident Evil 21

ИГРА 18+

pack

RePack

jed

!!Акция!!

Alien_Rage

RePack

fifa19

RePack

Assassins Creed: Odyssey

RePack

NEED FOR SPEED™ PAYBACK

3 сезон

9 сезон

Бесстыжие 9 сезон

Все сериалы

все сериалы на PB.wtf

RePack

FAR CRY 5
Ребята, катастрофически не хватает 1900р. для оплаты серверов за Октябрь (всвязи с блокировками трафик упал в 3 раза), 1-2р., выручайте.
  

Август. Восьмого (Джаник Файзиев) [2011 г., Драма, военный, BDRip (720p), лицензия] pb.wtf

Август. Восьмого через торрент pb.wtf

Размер: 4.36 GB | Добавлен: 7 лет 7 мес. назад | Торрент скачан:572 раза
Скачать  

27-03-2012 13:04 Август. Восьмого Скачать торрент  

Август. Восьмого

Год выпуска: 2011
Страна: Россия, Бонанза Студио, Даго
Жанр: Драма, военный
Продолжительность: 02:12:09
Перевод: Оригинал [Лицензия]
Тип релиза: Лицензия

Режиссер: Джаник Файзиев

В ролях: Светлана Иванова, Максим Матвеев, Егор Бероев, Артем Фадеев, Владимир Вдовиченков, Сергей Газаров, Гоша Куценко, Анатолий Белый, Кирилл Плетнёв, Алексей Гуськов

Описание: Когда события нанизываются одно на другое, когда каждая минута ставит тебя перед выбором, когда жизнь и смерть становятся частью страшной компьютерной игры, пульт от которой — в чужих руках, тогда ты начинаешь действовать так, будто каждая минута — последняя.
Казалось бы, жизнь хорошенькой разведенной москвички Ксении оставляет не много места для драматических ситуаций: да, сын Тема тяжело переживает развод родителей, да, поклонник поглощен карьерой, да, мама вмешивается в личную жизнь, — но трудно назвать эти обстоятельства критическими.
и

Качество: BDRip (720p)(источник: Blu-ray 1080p)
Формат: MKV
Видео кодек: Другой MPEG4
Аудио кодек: AC3
Видео: MPEG4 (H.264), 4272 kb/s, 1280x544, 23 976 fps
Аудио: AC3, 448 kb/s (6 ch), 48000 Hz
General
Unique ID : 242856545184748584193521901706623088194 (0xB6B478212C3060A092CA8C06C2547642)
Complete name : E:\Avgust.vosmogo.2012.O.BDRip.720p.mkv
Format : Matroska
Format version : Version 2
File size : 4.36 GiB
Duration : 2h 12mn
Overall bit rate : 4 722 Kbps
Encoded date : UTC 2012-03-27 01:17:24
Writing application : mkvmerge v5.0.1 ('Es ist Sommer') built on Nov 6 2011 16:23:40
Writing library : libebml v1.2.2 + libmatroska v1.3.0

Video
ID : 1
Format : AVC
Format/Info : Advanced Video Codec
Format profile : High@L3.1
Format settings, CABAC : Yes
Format settings, ReFrames : 5 frames
Codec ID : V_MPEG4/ISO/AVC
Duration : 2h 12mn
Bit rate : 4 272 Kbps
Width : 1 280 pixels
Height : 544 pixels
Display aspect ratio : 2.35:1
Frame rate : 23.976 fps
Color space : YUV
Chroma subsampling : 4:2:0
Bit depth : 8 bits
Scan type : Progressive
Bits/(Pixel*Frame) : 0.256
Stream size : 3.86 GiB (89%)
Writing library : x264 core 119 r2106 07efeb4
Encoding settings : cabac=1 / ref=5 / deblock=1:-1:-1 / analyse=0x3:0x113 / me=umh / subme=8 / psy=1 / psy_rd=1.00:0.10 / mixed_ref=1 / me_range=16 / chroma_me=1 / trellis=1 / 8x8dct=1 / cqm=0 / deadzone=21,11 / fast_pskip=1 / chroma_qp_offset=-3 / threads=12 / sliced_threads=0 / nr=0 / decimate=1 / interlaced=0 / bluray_compat=0 / constrained_intra=0 / bframes=3 / b_pyramid=2 / b_adapt=2 / b_bias=0 / direct=3 / weightb=1 / open_gop=0 / weightp=2 / keyint=250 / keyint_min=23 / scenecut=40 / intra_refresh=0 / rc_lookahead=50 / rc=2pass / mbtree=1 / bitrate=4272 / ratetol=1.0 / qcomp=0.60 / qpmin=0 / qpmax=69 / qpstep=4 / cplxblur=20.0 / qblur=0.5 / ip_ratio=1.40 / aq=1:1.00
Default : Yes
Forced : No

Audio
ID : 2
Format : AC-3
Format/Info : Audio Coding 3
Mode extension : CM (complete main)
Codec ID : A_AC3
Duration : 2h 12mn
Bit rate mode : Constant
Bit rate : 448 Kbps
Channel(s) : 6 channels
Channel positions : Front: L C R, Side: L R, LFE
Sampling rate : 48.0 KHz
Bit depth : 16 bits
Compression mode : Lossy
Stream size : 423 MiB (9%)
Default : Yes
Forced : No
pb.wtf



Скачать Август. Восьмого через торрент http://s019.radikal.ru/i642/1203/c2/d0f20918fc52.jpg Скачать фильм Август. Восьмого через торрент бесплантно в хорошем качестве Описание: Когда события нанизываются одно на другое, когда каждая минута ставит тебя перед выбором, когда жизнь и смерть становятся частью ... 10 10 8
Info! Золотая раздача, скачанное не засчитывается.
Торрент: Зарегистрирован [2012-04-17 11:30] · скачан: 572 раз
Статус: √ проверено
Размер: 4.36 GB
Как cкачать? Как скачать Август. Восьмого через торрент | qTorrent

% Раздел Тема Автор DL S | L
Наши новые фильмы 2012 [ 705 MB ] Август. Восьмого [2012 военный DVDRip лицензия] WISE Скачать
1 | 0
Наши новые фильмы 2012 [ 2.05 GB ] Август. Восьмого [2012 военный DVDRip лицензия] -=Cherry=- Скачать
1 | 0
Наши новые фильмы 2012 [ 2.41 GB ] Август. Восьмого [2012 военный DVDRip-AVC лицензия] -=Cherry=- Скачать
1 | 0

28-11-2019 20:33  

Отключить всю рекламу на сайте

27-03-2012 13:12 Август. Восьмого Скачать торрент  

РАЗДАЧА ПОШЛА (чуть поже будет воин 720 и 1080)pb.wtf



27-03-2012 13:47 Август. Восьмого Скачать торрент  

А 1080 когда будет?pb.wtf



27-03-2012 14:31 Август. Восьмого Скачать торрент  

1080 нет смыла вылаживать честно сказать фильм на 3 бала не более pb.wtf



27-03-2012 14:45 Август. Восьмого Скачать торрент  

~Relizer~ Кому как...pb.wtf



27-03-2012 18:03 Август. Восьмого Скачать торрент  

кино фигня! из 2 часов от силы 20 минут нормального фильма, а остальное жесткое российское кино... жалко денег и времени!pb.wtf



28-03-2012 10:40 Август. Восьмого Скачать торрент  

Нормальный фантастический фильм))
Отключайте мозг (умение анализировать вам не пригодится) и смотрите с удовольствием!
Сцена с добрым грузином,меня,убила наповал)) А так - да, - это история про матерей всех наций и народностей.pb.wtf



21-04-2012 13:04 Август. Восьмого Скачать торрент  

Качество отличное...фильм не плохой...на раз посмотреть самое-то.....сказка конечно.....но что-то в ней есть....спецэффекты мне понравились....pb.wtf



    Дорогой пользователь! Огромная просьба, поблагодарите релизера, оцените раздачу и оставьте свои комментарий, если Вы скачали Август. Восьмого через торрент бесплатно! Внесите свою лепту в развитие PiratBit!
    Комментировать посты могут только пользователи прошедшие не сложную регистрацию
    Показать сообщения:    

    Август. Восьмого через торрент
    Скачать бесплатно Август. Восьмого
    Август. Восьмого скачать торрент
    Август. Восьмого смотреть онлайн
    Cкачать фильм Август. Восьмого бесплатно
    Август. Восьмого скачать торрент в хорошем качестве
    Август. Восьмого смотреть онлайн бесплатно в хорошем качестве


    Вы не можете начинать темы
    Вы не можете отвечать на сообщения
    Вы не можете редактировать свои сообщения
    Вы не можете удалять свои сообщения
    Вы не можете голосовать в опросах
    Вы не можете прикреплять файлы к сообщениям
    Вы можете скачивать файлы