1 сезон

3 сезон

iTunes

1

Line

MVO

iTunes

13

1 сезон

RePack

30

Deluxe

pack

Лицензия

ВАЖНО

ИГРА 18+

pack

RePack

MK11

RePack

jed

RePack

fifa19

RePack

RDR2

RePack

NEED FOR SPEED™ PAYBACK

4 сезон

9 сезон

Бесстыжие 9 сезон

Все сериалы

все сериалы на PB.wtf

RePack

FAR CRY 5

Anonymous, доброй ночи, мы катастрофически не успеваем собрать деньги на оплату серверов, помогите нам пожалуйста 5,10,15р., для нас важна любая помощь . В качестве благодарности мы отключим Вам всю рекламу на сайте (укажите свой ник в строку Ваше имя)!

×
  
Magnet ссылка

Милый друг / Bel Ami (Деклан Доннеллан, Ник Ормерод / Declan Donnellan, Nick Ormerod) [2012, драма, DVD5] R5 pb.wtf

Милый друг через торрент pb.wtf

Размер: 4.35 GB | Добавлен: 9 лет 3 мес. назад | Торрент скачан:130 раз
Скачать  

17-04-2012 15:37 Милый друг Скачать торрент  

[font="Georgia"]
Милый друг / Bel Ami
«Соблазн. Обольщение. Страсть.»
Страна: Франция, Великобритания, Италия
Студия: 19 Entertainment, Protagonist Pictures, Rai Cinema, Redwave Films
Жанр: драма
Год выпуска: 2012
Мировая премьера: 17 февраля 2012
Российская премьера: 29 марта 2012
Дата выхода DVD: 24 апреля 2012
Дата выхода Blu-Ray: 24 апреля 2012
Продолжительность: 01:38:14
Перевод: Профессиональный (дублированный) [Лицензия]
Cубтитры: нет
Режиссер: Деклан Доннеллан, Ник Ормерод / Declan Donnellan, Nick Ormerod
В ролях: Роберт Паттинсон, Кристина Риччи, Ума Турман, Кристин Скотт Томас, Наталия Тена, Колм Мини, Холли Грэйнджер, Филип Гленистер, Пип Торренс, Джеймс Лэнс
Описание: Жоржа влекут деньги, секс и Влacть. Обольстительная внешность и железные нервы карточного игрока, обворожительные манеры и когти хищника — и Париж, город порока и страсти, лежит у его ног…
Бонусы: нет

Качество: DVD5 R5
Формат: DVD-Video
Видео кодек: MPEG2
Аудио кодек: AC3
Видео: PAL 16:9 (720x576(0.529)) MPEG Video, 25,000 кадр/сек, 5484 Кбит/сек
Аудио: Russian (Dolby AC3, 6 ch) 448 Кбит/сек, 48,0 КГц



Title:
Size: 4.35 Gb ( 4 557 468 KBytes ) - DVD-5
Enabled regions: 1, 2, 3, 4, 5, 6, 7, 8

VTS_01 :
Play Length: 00:00:05
Video: PAL 4:3 (720x576) VBR

VTS_02 :
Play Length: 00:00:16
Video: PAL 16:9 (720x576) VBR, Auto Letterboxed
Audio:
Not specified (Dolby AC3, 2 ch)

VTS_03 :
Play Length: 00:00:07
Video: PAL 16:9 (720x576) VBR, Auto Letterboxed
Audio:
Not specified (Dolby AC3, 2 ch)

VTS_04 :
Play Length: 00:00:16
Video: PAL 16:9 (720x576) VBR, Auto Letterboxed
Audio:
Not specified (Dolby AC3, 2 ch)

VTS_05 :
Play Length: 01:38:14
Video: PAL 16:9 (720x576) VBR, Auto Letterboxed
Audio:
Russian (Dolby AC3, 6 ch)

Menu Video:
PAL 16:9 (720x576) VBR
Auto Pan&Scan, Auto Letterboxed
Menu Subtitles:
Not specified
Menu English Language Unit :
Root Menu
Общее
Полное имя : J:\Новинки 2012\Milyj.drug.2012.DVD5\VIDEO_TS\VTS_05_1.VOB
Формат : MPEG-PS
Размер файла : 1024 Мбайт
Продолжительность : 23 м.
Режим общего битрейта : Переменный
Общий поток : 6053 Кбит/сек

Видео
Идентификатор : 224 (0xE0)
Формат : MPEG Video
Версия формата : Version 2
Профиль формата : Main@Main
Параметр BVOP формата : Да
Параметр матрицы формата : По умолчанию
Параметр GOP формата : M=3, N=12
Продолжительность : 23 м.
Вид битрейта : Переменный
Битрейт : 5484 Кбит/сек
Максимальный битрейт : 8000 Кбит/сек
Ширина : 720 пикселей
Высота : 576 пикселей
Соотношение сторон : 16:9
Частота кадров : 25,000 кадров/сек
Стандарт вещания : PAL
Цветовое пространство : YUV
Субдискретизация насыщенности : 4:2:0
Битовая глубина : 8 бит
Тип развёртки : Прогрессивная
Метод сжатия : С потерями
Бит/(Пиксели*Кадры) : 0.529
Размер потока : 928 Мбайт (91%)

Аудио
Идентификатор : 189 (0xBD)-128 (0x80)
Формат : AC-3
Формат/Информация : Audio Coding 3
Расширение режима : CM (complete main)
Режим смешивания : DVD-Video
Продолжительность : 23 м.
Вид битрейта : Постоянный
Битрейт : 448 Кбит/сек
Каналы : 6 каналов
Расположение каналов : Front: L C R, Side: L R, LFE
Частота : 48,0 КГц
Битовая глубина : 16 бит
Метод сжатия : С потерями
Размер потока : 75,8 Мбайт (7%)










pb.wtf



Скачать Милый друг через торрент http://s017.radikal.ru/i417/1204/e4/217d8960b636.png Скачать фильм Милый друг через торрент бесплантно в хорошем качестве Описание: Жоржа влекут деньги, секс и Влacть. Обольстительная внешность и железные нервы карточного игрока, обворожительные манеры и когти ... 5 10 9
Info! Золотая раздача, скачанное не засчитывается.
Торрент: Зарегистрирован [2012-04-17 15:37] · скачан: 130 раз
Статус: √ проверено
Размер: 4.35 GB
Как cкачать? Как скачать Милый друг через торрент | UTorrent

28-11-2019 20:33  

Отключить всю рекламу на сайте

17-04-2012 21:50 Милый друг Скачать торрент  

хороший фильм!pb.wtf



    Дорогой пользователь! Огромная просьба, поблагодарите релизера, оцените раздачу и оставьте свои комментарий, если Вы скачали Милый друг через торрент бесплатно! Внесите свою лепту в развитие PiratBit!
    Комментировать посты могут только пользователи прошедшие не сложную регистрацию
    Показать сообщения:    

    Милый друг через торрент
    Скачать бесплатно Милый друг
    Милый друг скачать торрент
    Милый друг смотреть онлайн
    Cкачать фильм Милый друг бесплатно
    Милый друг скачать торрент в хорошем качестве
    Милый друг смотреть онлайн бесплатно в хорошем качестве


    Вы не можете начинать темы
    Вы не можете отвечать на сообщения
    Вы не можете редактировать свои сообщения
    Вы не можете удалять свои сообщения
    Вы не можете голосовать в опросах
    Вы не можете прикреплять файлы к сообщениям
    Вы можете скачивать файлы