1 сезон

3 сезон

iTunes

1

Line

MVO

iTunes

13

1 сезон

RePack

30

Deluxe

pack

Лицензия

ВАЖНО

ИГРА 18+

pack

RePack

MK11

RePack

jed

RePack

fifa19

RePack

RDR2

RePack

NEED FOR SPEED™ PAYBACK

4 сезон

9 сезон

Бесстыжие 9 сезон

Все сериалы

все сериалы на PB.wtf

RePack

FAR CRY 5

Anonymous, доброй ночи, мы катастрофически не успеваем собрать деньги на оплату серверов, помогите нам пожалуйста 5,10,15р., для нас важна любая помощь . В качестве благодарности мы отключим Вам всю рекламу на сайте (укажите свой ник в строку Ваше имя)!

×
  
Magnet ссылка

Ловушка для невесты / The Decoy Bride (Шери Фольксон / Sheree Folkson) [2011, драма, комедия, DVD5] R5 pb.wtf

Ловушка для невесты через торрент pb.wtf

Размер: 4.16 GB | Добавлен: 9 лет 3 мес. назад | Торрент скачан:95 раз
Скачать  

17-04-2012 15:22 Ловушка для невесты Скачать торрент  

[font="Georgia"]
Ловушка для невесты / The Decoy Bride
Страна: Великобритания
Студия: CinemaNX, Ecosse Films, Isle of Man Film Ltd, Scottish Screen
Жанр: драма, комедия
Год выпуска: 2011
Мировая премьера: 14 мая 2011
Российская премьера: 15 марта 2012
Дата выхода DVD: 12 апреля 2012
Продолжительность: 01:25:25
Перевод: Профессиональный (многоголосый закадровый) [Лицензия]
Cубтитры: украинские
Режиссер: Шери Фольксон / Sheree Folkson
В ролях: Келли Макдоналд, Элис Ив, Дэвид Теннант, Майкл Ури, Кира МакМиллан, Федерико Кастеллуччо, Хамиш Кларк, Алекс Чайлдз, Сэмюэл Рукин, Вивьенн Харви
Описание: Фильм рассказывает об актрисе-суперзвезде Ларе, которая хочет выйти замуж за своего привлекательного британского бойфренда Джеймса и считает, что сонный шотландский островок Хегг является единственным местом в мире, где их не найдут папарацци. Но папарацци их находят и, чтобы сбить их со следа, Лара решает найти подсадную невесту, на роль которой по ее мнению идеально подойдет местная девушка Кэти. Но когда Кэти и Джеймс встречаются «летят искры».
Бонусы: нет

Релиз группы:
Качество: DVD5 R5
Формат: DVD-Video
Видео кодек: MPEG2
Аудио кодек: AC3
Видео: PAL 16:9 (720x576(0.586)) MPEG Video, 25,000 кадр/сек, 6080 Кбит/сек
Аудио: Russian (Dolby AC3, 6 ch) 384 Кбит/сек, 48,0 КГц



Title:
Size: 4.16 Gb ( 4 358 972 KBytes ) - DVD-5
Enabled regions: 1, 2, 3, 4, 5, 6, 7, 8

VTS_01 :
Play Length: 01:25:25
Video: PAL 16:9 (720x576) VBR, Auto Letterboxed
Audio:
Russian (Dolby AC3, 6 ch)
Subtitles:
Ukrainian

VTS_02 :
Play Length: 00:00:08
Video: PAL 4:3 (720x576) VBR

VTS_03 :
Play Length: 00:01:12+00:02:25+00:00:01
Video: PAL 16:9 (720x576) VBR, Auto Letterboxed
Audio:
English (Dolby AC3, 2 ch)
Subtitles:
English

Menu Video:
PAL 4:3 (720x576) VBR
Auto Pan&Scan, Auto Letterboxed
Menu Russian Language Unit :
Root Menu
Subpicture Menu
Chapter (PTT) Menu
Angle menu
Общее
Полное имя : J:\Новинки 2012\Lovushka.dlja.nevesti.2011.DVD5\VIDEO_TS\VTS_01_2.VOB
Формат : MPEG-PS
Размер файла : 1024 Мбайт
Продолжительность : 21 м.
Режим общего битрейта : Переменный
Общий поток : 6595 Кбит/сек

Видео
Идентификатор : 224 (0xE0)
Формат : MPEG Video
Версия формата : Version 2
Профиль формата : Main@Main
Параметр BVOP формата : Да
Параметр матрицы формата : Выборочная
Параметр GOP формата : M=3, N=15
Продолжительность : 21 м.
Вид битрейта : Переменный
Битрейт : 6080 Кбит/сек
Максимальный битрейт : 8000 Кбит/сек
Ширина : 720 пикселей
Высота : 576 пикселей
Соотношение сторон : 16:9
Частота кадров : 25,000 кадров/сек
Стандарт вещания : PAL
Цветовое пространство : YUV
Субдискретизация насыщенности : 4:2:0
Битовая глубина : 8 бит
Тип развёртки : Чересстрочная
Порядок развёртки : Верхнее поле первое
Метод сжатия : С потерями
Бит/(Пиксели*Кадры) : 0.586
Размер потока : 944 Мбайт (92%)

Аудио
Идентификатор : 189 (0xBD)-128 (0x80)
Формат : AC-3
Формат/Информация : Audio Coding 3
Расширение режима : CM (complete main)
Режим смешивания : DVD-Video
Продолжительность : 21 м.
Вид битрейта : Постоянный
Битрейт : 384 Кбит/сек
Каналы : 6 каналов
Расположение каналов : Front: L C R, Side: L R, LFE
Частота : 48,0 КГц
Битовая глубина : 16 бит
Метод сжатия : С потерями
Задержка видео : -744 мс.
Размер потока : 59,6 Мбайт (6%)

Текст
Идентификатор : 189 (0xBD)-32 (0x20)
Формат : RLE
Формат/Информация : Run-length encoding
Режим смешивания : DVD-Video
Продолжительность : 21 м.
Задержка видео : 400 мс.












http://pb.wtf/viewtopic.php?t=79611


pb.wtf



Скачать Ловушка для невесты через торрент http://s019.radikal.ru/i610/1204/39/9a85d9bf3e6c.png Скачать фильм Ловушка для невесты через торрент бесплантно в хорошем качестве Описание: Фильм рассказывает об актрисе-суперзвезде Ларе, которая хочет выйти замуж за своего привлекательного британского бойфренда ... 4.7 10 9
Info! Золотая раздача, скачанное не засчитывается.
Торрент: Зарегистрирован [2012-04-17 18:28] · скачан: 95 раз
Статус: √ проверено
Размер: 4.16 GB
Как cкачать? Как скачать Ловушка для невесты через торрент | UTorrent

28-11-2019 20:33  

Отключить всю рекламу на сайте

    Дорогой пользователь! Огромная просьба, поблагодарите релизера, оцените раздачу и оставьте свои комментарий, если Вы скачали Ловушка для невесты через торрент бесплатно! Внесите свою лепту в развитие PiratBit!
    Комментировать посты могут только пользователи прошедшие не сложную регистрацию
    Показать сообщения:    

    Ловушка для невесты через торрент
    Скачать бесплатно Ловушка для невесты
    Ловушка для невесты скачать торрент
    Ловушка для невесты смотреть онлайн
    Cкачать фильм Ловушка для невесты бесплатно
    Ловушка для невесты скачать торрент в хорошем качестве
    Ловушка для невесты смотреть онлайн бесплатно в хорошем качестве


    Вы не можете начинать темы
    Вы не можете отвечать на сообщения
    Вы не можете редактировать свои сообщения
    Вы не можете удалять свои сообщения
    Вы не можете голосовать в опросах
    Вы не можете прикреплять файлы к сообщениям
    Вы можете скачивать файлы