Ссылка на приватное зеркало нашего сайта всего за 1$. Внимание количество ограничено!!!

2 сезон

iTunes

1 сезон

1

iTunes

iTunes

iTunes

1 сезон

RePack

30

ИГРА 18+

pack

ВАЖНО

!!Акция!!

Alien_RageХит недели

RePack

MK11
pack

Забери бонус

RePack

jed

!!Акция!!

Alien_Rage

RePack

fifa19

RePack

Assassins Creed: Odyssey

RePack

NEED FOR SPEED™ PAYBACK

4 сезон

9 сезон

Бесстыжие 9 сезон

Все сериалы

все сериалы на PB.wtf

RePack

FAR CRY 5
  

Шаман / Серии: 1-16 из 16 (Максим Кубринский) [2011 г., Криминал, драма, DVDRip] pb.wtf

Шаман через торрент pb.wtf

Размер: 7.62 GB | Добавлен: 8 лет 6 мес. назад | Торрент скачан:390 раз
Скачать  

18-04-2012 14:56 Шаман Скачать торрент  


Шаман

Год выпуска: 2011
Страна: Россия
Жанр: Криминал, драма
Продолжительность: 16 х 00:45:00
Перевод: Не требуется
______________________________________________________
  • Режиссер: Максим Кубринский
  • Оператор: Станислав Пекарский, Александр Полагаев
  • Композитор: Максим Кошеваров

______________________________________________________
В ролях: Владимир Скворцов, Игорь Ботвин, Ян Цапник, Сергей Мардарь,Кирилл Щербина, Светлана Щедрина, Виталий Коваленко, Владимир Карпов (III), Евгений Катаев, Виталий Куклин, Анна Пескова, Анатолий Хропов, Алексей Лысенко, Константин Фисенко, Алексей Фокин, Михаил Сидаш, Тимофей Будкевич, Валерий Ошомков, Роман Павлушев, Юлия Сафонова

Описание: После двух лет, проведенных в СИЗО, на свободу выходит следователь СКП Иван Шаманов. У него есть сын, коллеги, азарт и работа, а также скверный характер и отличное чувство юмора. Он любвеобилен — и красотки отвечают ему взаимностью. Его главный враг — Корнеев, человек, из-за которого Шаман и попал за решетку. Шаман слишком крутой в своей профессии — и это не может оставить равнодушными тех, с кем он борется: преступники его боятся, запугивают и пытаются убрать. Но Шаман точно знает, что сила — в правде. А потому всегда на шаг опережает злодеев. Но кто победит в итоге?
______________________________________________________
  • Качество: DVDRip
  • Формат: AVI
  • Видео кодек: XviD
  • Аудио кодек: AC3
  • Видео: MPEG4, XviD, 720x406 (16:9), 25.000 fps, 1 306 Kbps (0.179 bit/pixel)
  • Аудио: AC-3, 48.0 KHz, 2 ch, 256 Kbps, CBR
--> Перейти к DVD <--_________________________________________________________________________________Скриншоты

скриншот   скриншот   скриншот   скриншот  
_________________________________________________________________________________

Код:

Общее
Полное имя                               : F:\Шаман DVDRip [special for Piratbit.net]\1 серия [special for Piratbit.net].avi
Формат                                   : AVI
Формат/Информация                        : Audio Video Interleave
Размер файла                             : 517 Мбайт
Продолжительность                        : 45 м.
Общий поток                              : 1573 Кбит/сек
Название фильма                          : Шаман 1 серия
Режиссёр                                 : shuller
Жанр                                     : драма / криминал
Тема                                     : Его правда - его оружие
Дата записи                              : 18.04.2012
Программа кодирования                    : Lavf53.21.0
Формат оригинала/Имя                     : сериал
Правообладатель                          : Piratbit.net
Примечание                               : Rip special for Piratbit.net

Видео
Идентификатор                            : 0
Формат                                   : MPEG-4 Visual
Профиль формата                          : Advanced Simple@L5
Параметр BVOP формата                    : 2
Параметр QPel формата                    : Нет
Параметр GMC формата                     : Без точки перехода
Параметр матрицы формата                 : Default (H.263)
Режим смешивания                         : Сжатый битовый поток
Идентификатор кодека                     : XVID
Идентификатор кодека/Подсказка           : XviD
Продолжительность                        : 45 м.
Битрейт                                  : 1306 Кбит/сек
Ширина                                   : 720 пикселей
Высота                                   : 406 пикселей
Соотношение сторон                       : 16:9
Частота кадров                           : 25,000 кадров/сек
Цветовое пространство                    : YUV
Субдискретизация насыщенности            : 4:2:0
Битовая глубина                          : 8 бит
Тип развёртки                            : Прогрессивная
Метод сжатия                             : С потерями
Бит/(Пиксели*Кадры)                      : 0.179
Размер потока                            : 429 Мбайт (83%)
Библиотека кодирования                   : XviD 1.2.1 (UTC 2008-12-04)

Аудио
Идентификатор                            : 1
Формат                                   : AC-3
Формат/Информация                        : Audio Coding 3
Расширение режима                        : CM (complete main)
Параметр Endianness формата              : Big
Идентификатор кодека                     : 2000
Продолжительность                        : 45 м.
Вид битрейта                             : Постоянный
Битрейт                                  : 256 Кбит/сек
Каналы                                   : 2 канала
Расположение каналов                     : Front: L R
Частота                                  : 48,0 КГц
Битовая глубина                          : 16 бит
Метод сжатия                             : С потерями
Размер потока                            : 84,0 Мбайт (16%)
Выравнивание                             : Соединение по промежуткам
Продолжительность промежутка             : 32  мс. (0,80 видеокадр)
Язык                                     : 5

pb.wtf



Скачать Шаман через торрент http://pic.kartinco.top/images/2000/9yryzkyu3c.png Скачать фильм Шаман через торрент бесплантно в хорошем качестве Описание: После двух лет, проведенных в СИЗО, на свободу выходит следователь СКП Иван Шаманов. У него есть сын, коллеги, азарт и работа, а ... 9.9 10 16
Info! Золотая раздача, скачанное не засчитывается.
Торрент: Зарегистрирован [2012-04-18 14:56] · скачан: 390 раз
Статус: √ проверено
Размер: 7.62 GB
Как cкачать? Как скачать Шаман через торрент | qTorrent

% Раздел Тема Автор DL S | L
Наши сериалы [ 50.08 GB ] Шаман / Сезон: 1-3 / Серии: 1-80 из 80 [2011-2016 WEBRip-AVC] bober100 Скачать
1 | 0
Наши сериалы [ 16.72 GB ] Шаман.Новая угроза / Серии: 1-32 из 32 [2016 SATRip-AVC] aleksan55 Скачать
1 | 0
Наши сериалы [ 15.06 GB ] Шаман / Серии: 1-16 из 16 [2011 ​ DVD9 x 2] shuller Скачать
1 | 0

28-11-2019 20:33  

Отключить всю рекламу на сайте

21-08-2016 18:16 Шаман Скачать торрент  

дайте скорости плизpb.wtf



    Дорогой пользователь! Огромная просьба, поблагодарите релизера, оцените раздачу и оставьте свои комментарий, если Вы скачали Шаман через торрент бесплатно! Внесите свою лепту в развитие PiratBit!
    Комментировать посты могут только пользователи прошедшие не сложную регистрацию
    Показать сообщения:    

    Шаман через торрент
    Скачать бесплатно Шаман
    Шаман скачать торрент
    Шаман смотреть онлайн
    Cкачать фильм Шаман бесплатно
    Шаман скачать торрент в хорошем качестве
    Шаман смотреть онлайн бесплатно в хорошем качестве


    Вы не можете начинать темы
    Вы не можете отвечать на сообщения
    Вы не можете редактировать свои сообщения
    Вы не можете удалять свои сообщения
    Вы не можете голосовать в опросах
    Вы не можете прикреплять файлы к сообщениям
    Вы можете скачивать файлы