Ссылка на приватное зеркало нашего сайта всего за 1$. Внимание количество ограничено!!!

2 сезон

iTunes

1 сезон

1

2 сезон

2 сезон

iTunes

1 сезон

RePack

30

Новинка

ВАЖНО

ИГРА 18+

pack

RePack

MK11
pack

Забери бонус

RePack

jed

!!Акция!!

Alien_Rage

RePack

fifa19

RePack

Assassins Creed: Odyssey

RePack

NEED FOR SPEED™ PAYBACK

4 сезон

9 сезон

Бесстыжие 9 сезон

Все сериалы

все сериалы на PB.wtf

RePack

FAR CRY 5
  

Титаник / Titanic / Серии: 4 из 4(Джон Джонс) [2012 г., драма, BDRip (720p), MVO + Оригинал] pb.wtf

Титаник через торрент pb.wtf

Размер: 9.26 GB | Добавлен: 8 лет 7 мес. назад | Торрент скачан:144 раза
Скачать  

18-04-2012 15:10 Титаник Скачать торрент  


Титаник / Titanic


Год выпуска: 2012
Страна: США, Канада, Великобритания, Венгрия / Deep Indigo Productions, ITV Productions, Look Out Point
Жанр: драма
Продолжительность: 4 x 00:46:00
Перевод: Профессиональный (многоголосый, закадровый) + Оригинал

Режиссер: Джон Джонс

В ролях: Питер МакДональд, Стивен Вэддингтон, Рут Брэдли, Глен Блэкхолл, Джорджия МакКатчен, Антонио Магро, Дженна-Луиз Коулмэн, Стивен Кэмпбелл Мур, Ллойд Хатчинсон, Пердита Викс

Описание: Новый проект «Титаник» представляет собой версию трагических событий, которые имели место в северной Атлантике в 1912 году. Катастрофа Титаника самое известное и масштабное кораблекрушение в истории мореплавания. Корабль, построенный в 1912 год, отправился в свое первое и последнее плавание из английского Саутгемптона в Нью-Йорк. Это был крупнейший на тот момент пассажирский лайнер, на борту которого легко размещались более двух тысяч человек. Конструкторы утверждали, что благодаря своей конструкции корабль практически непотопляем. На борту присутствовали как миллионеры, известные актеры и аристократы, так и простые люди, которые ехали на нижних палубах в тесноте. С момента отплытия и до катастрофы жизнь на корабле протекала в обычном для того времени ритме. К услугам богатых пассажиров были все блага цивилизации, а простые люди были вынуждены почти все время проводить в душных каютах нижней палубы. И только когда корабль столкнулся с айсбергом и начал тонуть, стало ясно, что перед лицом неминуемой смерти все равны — и миллионеры, и простые рабочие…

Качество: BDRip (720p)
Формат: MKV
Видео кодек: Другой MPEG4
Аудио кодек: AC3
Видео: AVC, 1280x720 (16:9), 23.976 fps, 5 143 Kbps (0.233 bit/pixel)
Аудио#1: AC-3, 48.0 KHz, 6 ch, 384 Kbps, CBR (Russian)
Аудио#2: DTS, 48.0 KHz, 6 ch, 1 510 Kbps, CBR (English)
Субтитры: Russian
Скриншоты
General
Unique ID : 180595666901026772183850933527516614122 (0x87DD75D4541DDEDFBE3B4C1050150DEA)
Complete name : D:\Тореннты\Titanic.2012.BDRip.720p.IRONCLUB\Titanic.2012.E01.BDRip.720p.IRONCLUB.mkv
Format : Matroska
Format version : Version 2
File size : 2.31 GiB
Duration : 47mn 3s
Overall bit rate : 7 036 Kbps
Movie name : IRONCLUB
Encoded date : UTC 2012-04-17 15:59:49
Writing application : mkvmerge v4.9.1 ('Ich will') сборка от Jul 11 2011 23:53:15
Writing library : libebml v1.2.1 + libmatroska v1.1.1

Video
ID : 1
Format : AVC
Format/Info : Advanced Video Codec
Format profile : High@L4.1
Format settings, CABAC : Yes
Format settings, ReFrames : 9 frames
Codec ID : V_MPEG4/ISO/AVC
Duration : 47mn 3s
Bit rate : 5 143 Kbps
Width : 1 280 pixels
Height : 720 pixels
Display aspect ratio : 16:9
Frame rate : 23.976 fps
Color space : YUV
Chroma subsampling : 4:2:0
Bit depth : 8 bits
Scan type : Progressive
Bits/(Pixel*Frame) : 0.233
Stream size : 1.64 GiB (71%)
Title : Titanic.2012.E01.720p.BluRay.x264.DTS-HDChina
Writing library : x264 core 120 r2164 da19765
Encoding settings : cabac=1 / ref=9 / deblock=1:-3:-3 / analyse=0x3:0x133 / me=umh / subme=10 / psy=1 / psy_rd=1.00:0.00 / mixed_ref=1 / me_range=32 / chroma_me=1 / trellis=2 / 8x8dct=1 / cqm=0 / deadzone=21,11 / fast_pskip=1 / chroma_qp_offset=-2 / threads=12 / sliced_threads=0 / nr=0 / decimate=0 / interlaced=0 / bluray_compat=0 / constrained_intra=0 / bframes=7 / b_pyramid=2 / b_adapt=2 / b_bias=0 / direct=3 / weightb=1 / open_gop=0 / weightp=2 / keyint=250 / keyint_min=23 / scenecut=40 / intra_refresh=0 / rc_lookahead=60 / rc=2pass / mbtree=0 / bitrate=5143 / ratetol=1.0 / qcomp=0.60 / qpmin=0 / qpmax=69 / qpstep=4 / cplxblur=20.0 / qblur=0.5 / vbv_maxrate=30000 / vbv_bufsize=30000 / nal_hrd=none / ip_ratio=1.50 / pb_ratio=1.30 / aq=1:1.00
Language : English
Default : Yes
Forced : No

Audio #1
ID : 2
Format : AC-3
Format/Info : Audio Coding 3
Mode extension : CM (complete main)
Codec ID : A_AC3
Duration : 47mn 3s
Bit rate mode : Constant
Bit rate : 384 Kbps
Channel(s) : 6 channels
Channel positions : Front: L C R, Side: L R, LFE
Sampling rate : 48.0 KHz
Bit depth : 16 bits
Compression mode : Lossy
Stream size : 129 MiB (5%)
Title : MVO R5
Language : Russian
Default : Yes
Forced : No

Audio #2
ID : 3
Format : DTS
Format/Info : Digital Theater Systems
Codec ID : A_DTS
Duration : 47mn 3s
Bit rate mode : Constant
Bit rate : 1 510 Kbps
Channel(s) : 6 channels
Channel positions : Front: L C R, Side: L R, LFE
Sampling rate : 48.0 KHz
Bit depth : 16 bits
Compression mode : Lossy
Stream size : 508 MiB (21%)
Title : Original
Language : English
Default : No
Forced : No

Text
ID : 4
Format : UTF-8
Codec ID : S_TEXT/UTF8
Codec ID/Info : UTF-8 Plain Text
Title : Full
Language : Russian
Default : No
Forced : No

pb.wtf



Скачать Титаник через торрент http://pic.kartinco.top/images/2000/8ofvqd8xpi.png Скачать фильм Титаник через торрент бесплантно в хорошем качестве Описание: Новый проект «Титаник» представляет собой версию трагических событий, которые имели место в северной Атлантике в 1912 году. ... 10 10 1
Info! Золотая раздача, скачанное не засчитывается.
Торрент: Зарегистрирован [2012-04-18 15:10] · скачан: 144 раз
Статус: √ проверено
Размер: 9.26 GB
Как cкачать? Как скачать Титаник через торрент | qTorrent

28-11-2019 20:33  

Отключить всю рекламу на сайте

18-04-2012 15:16 Титаник Скачать торрент  

Не могу на кинопоиске найтиpb.wtf



18-04-2012 15:17 Титаник Скачать торрент  

~Relizer~
Судя по сэмплу здесь не дубляж!pb.wtf



18-04-2012 15:18 Титаник Скачать торрент  

Это что такое?С дикаприо рапиленный на 4 части фильм который уже все видели, или что то новое? Не пойму как тоpb.wtf



18-04-2012 15:50 Титаник Скачать торрент  

Dru1d
вот вот у меня такой же вопросpb.wtf



18-04-2012 15:50 Титаник Скачать торрент  

Какой Ди Каприо??? Это новый фильмpb.wtf



18-04-2012 16:18 Титаник Скачать торрент  

Resident1948 писал(а):

Это новый фильм а еще лучше посмотреть новый документальный

Какой новый документальный? Залейте если не сложно.pb.wtf



18-04-2012 16:26 Титаник Скачать торрент  

вы спятили? ну скока можно?pb.wtf



18-04-2012 16:54 Титаник Скачать торрент  

~Relizer~
В заголовке надо указывать количество серий.pb.wtf



18-04-2012 16:54 Титаник Скачать торрент  

SuperGood писал(а):

вы спятили? ну скока можно?

Вообще то 3 дня назад Титанику исполнилось 100 лет, как он утонул.pb.wtf



18-04-2012 17:18 Титаник Скачать торрент  

Тяжелый сериал сделали...очень понравилсяpb.wtf



    Дорогой пользователь! Огромная просьба, поблагодарите релизера, оцените раздачу и оставьте свои комментарий, если Вы скачали Титаник через торрент бесплатно! Внесите свою лепту в развитие PiratBit!
    Комментировать посты могут только пользователи прошедшие не сложную регистрацию
    Показать сообщения:    

    Титаник через торрент
    Скачать бесплатно Титаник
    Титаник скачать торрент
    Титаник смотреть онлайн
    Cкачать фильм Титаник бесплатно
    Титаник скачать торрент в хорошем качестве
    Титаник смотреть онлайн бесплатно в хорошем качестве


    Вы не можете начинать темы
    Вы не можете отвечать на сообщения
    Вы не можете редактировать свои сообщения
    Вы не можете удалять свои сообщения
    Вы не можете голосовать в опросах
    Вы не можете прикреплять файлы к сообщениям
    Вы можете скачивать файлы