Ссылка на приватное зеркало нашего сайта всего за 1$. Внимание количество ограничено!!!

2 сезон

iTunes

1 сезон

1

2 сезон

2 сезон

iTunes

1 сезон

RePack

30

Новинка

ВАЖНО

ИГРА 18+

pack

RePack

MK11
pack

Забери бонус

RePack

jed

!!Акция!!

Alien_Rage

RePack

fifa19

RePack

Assassins Creed: Odyssey

RePack

NEED FOR SPEED™ PAYBACK

4 сезон

9 сезон

Бесстыжие 9 сезон

Все сериалы

все сериалы на PB.wtf

RePack

FAR CRY 5
  

Искатель / Сыщик / 1 сезон / Серии: 1-11 из 13 / The Finder (Дэниэл Сакхейм) [2012 г., драма, криминал, WEB-DLRip, MVO [FilmGate] + Original Eng] pb.wtf

Искатель через торрент pb.wtf

Размер: 7.68 GB | Добавлен: 8 лет 6 мес. назад | Торрент скачан:11 раз
Скачать  

19-04-2012 14:16 Искатель Скачать торрент  

Искатель / Сыщик / The Finder
Год выпуска: 2012
Страна: США
Жанр: драма, криминал
Продолжительность: ~43 минуты
Перевод: Любительский (многоголосый) [FilmGate]

Режиссер: Дэниэл Сакхейм
Продюссер: Курт Мориц
Сценарий: Уилл Паскоу, Ричард Гринер, Харт Хэнсон

В ролях: Майкл Кларк Дункан, Мэдди Хассон, Мерседес Масун, Джофф Стульц, Шарлин Амойя, Майкл Бауэр, Майкл Гамбино, Патрик Роберт Смит, Рой Вернер, Эрик Томас Уилсон
Описание: Сериал о бывшем полицейском Уолтере Шермане по прозвищу «Локатор» — личности весьма эксцентричной и скептически ко всему настроенной. Однако, благодаря своей поистине уникальной способности находить все мыслимое и немыслимое Шерман является востребованным человеком. Кстати, он работает не один — во всех делах ему помогает его напарник Лео.
Спин-офф (spin-off ) сериала «Bones» ("Кости").Внимание 8-11 серия без оригинальной дорожки, по мере возможности будут заменены.
Качество: WEB-DLRip
Формат: AVI
Видео кодек: XviD
Аудио кодек: AC3
Видео: 720x400 (1.80:1), 23.976 fps, XviD build 50 ~1996 kbps avg, 0.29 bit/pixel
Аудио (Rus): 48 kHz, AC3 Dolby Digital, 3/2 (L,C,R,l,r) + LFE ch, ~384 kbps
Аудио (Eng): 48 kHz, AC3 Dolby Digital, 3/2 (L,C,R,l,r) + LFE ch, ~384 kbps

Релиз от:
Перевод: olga357, vergi
Роли озвучивали: ireeda, ozzi, zeddicus




Общее
Полное имя : \The Finder\1 season\The.Finder.s01e01.rus.eng.avi
Формат : AVI
Формат/Информация : Audio Video Interleave
Размер файла : 875 Мбайт
Продолжительность : 44 м.
Общий поток : 2779 Кбит/сек
Программа кодирования : VirtualDubMod 1.5.10.2 (build 2540/release)
Библиотека кодирования : VirtualDubMod build 2540/release

Видео
Идентификатор : 0
Формат : MPEG-4 Visual
Профиль формата : Advanced Simple@L5
Параметр BVOP формата : 1
Параметр QPel формата : Нет
Параметр GMC формата : Без точки перехода
Параметр матрицы формата : Default (MPEG)
Идентификатор кодека : XVID
Идентификатор кодека/Подсказка : XviD
Продолжительность : 44 м.
Битрейт : 1997 Кбит/сек
Ширина : 720 пикселей
Высота : 400 пикселей
Соотношение сторон : 16:9
Частота кадров : 23,976 кадра/сек
Цветовое пространство : YUV
Субдискретизация насыщенности : 4:2:0
Битовая глубина : 8 бит
Тип развёртки : Прогрессивная
Метод сжатия : С потерями
Бит/(Пиксели*Кадры) : 0.289
Размер потока : 629 Мбайт (72%)
Библиотека кодирования : XviD 1.2.1 (UTC 2008-12-04)

Аудио #1
Идентификатор : 1
Формат : AC-3
Формат/Информация : Audio Coding 3
Расширение режима : CM (complete main)
Идентификатор кодека : 2000
Продолжительность : 44 м.
Вид битрейта : Постоянный
Битрейт : 384 Кбит/сек
Каналы : 6 каналов
Расположение каналов : Front: L C R, Side: L R, LFE
Частота : 48,0 КГц
Битовая глубина : 16 бит
Метод сжатия : С потерями
Размер потока : 121 Мбайт (14%)
Выравнивание : Разделение по промежуткам
Продолжительность промежутка : 42 мс. (1,00 видеокадр)
Время предзагрузки промежутка : 500 мс.

Аудио #2
Идентификатор : 2
Формат : AC-3
Формат/Информация : Audio Coding 3
Расширение режима : CM (complete main)
Идентификатор кодека : 2000
Продолжительность : 44 м.
Вид битрейта : Постоянный
Битрейт : 384 Кбит/сек
Каналы : 6 каналов
Расположение каналов : Front: L C R, Side: L R, LFE
Частота : 48,0 КГц
Битовая глубина : 16 бит
Метод сжатия : С потерями
Размер потока : 121 Мбайт (14%)
Выравнивание : Разделение по промежуткам
Продолжительность промежутка : 42 мс. (1,00 видеокадр)
Время предзагрузки промежутка : 500 мс.
Внимание! Раздача ведётся путём добавления новых серий; при каждом добавлении создаётся новый торрент. Чтобы начать докачку новой серии, пользователям необходимо сделать следующее:
(1) остановить скачивание,
(2) удалить старый торрент у себя из клиента (старые серии удалять не надо),
(3) скачать новый торрент и запустить его у себя в клиенте вместо старого, при этом указать клиенту путь в старую папку куда и должно происходить скачивание новых серий.
Ваш клиент при этом должен произвести хеширование (проверку) старой папки (если не производит сам - помогите ему сделать это), и будет докачивать только те серии которых у вас ещё нет. Старые серии при этом не удаляются, а продолжают раздаваться!
Eсли вы уже удалили старые серии, то предотвратить повторную закачку старых серий можно, отжав галочку в соответствующих местах при запуске нового торрента. По возможности, желательно не удалять старые серии как можно дольше чтобы релизёр не столько продолжал раздавать старые серии, а смог сконцентрироваться на новых.
pb.wtf



Скачать Искатель через торрент http://pic.kartinco.top/images/2000/szamqgdr8q.jpg Скачать фильм Искатель через торрент бесплантно в хорошем качестве Описание: Сериал о бывшем полицейском Уолтере Шермане по прозвищу «Локатор» — личности весьма эксцентричной и скептически ко всему ... 5 10 5
Info! Золотая раздача, скачанное не засчитывается.
Торрент: Зарегистрирован [2012-05-10 18:19] · скачан: 11 раз
Статус: √ проверено
Размер: 7.68 GB
Как cкачать? Как скачать Искатель через торрент | qTorrent



Последний раз редактировалось: 0xiDESK (2012-05-10 18:19), всего редактировалось 6 раз(а)

28-11-2019 20:33  

Отключить всю рекламу на сайте

19-04-2012 14:21 Искатель Скачать торрент  

8 серия будет добавлена или сегодня поздно вечером или завтра... Спасибоpb.wtf



20-04-2012 17:55 Искатель Скачать торрент  

Скорости плиз ато качать месяц буду:(pb.wtf



20-04-2012 19:26 Искатель Скачать торрент  

sirko писал(а):

Скорости плиз ато качать месяц буду:(

постараюсь, оставлю тока ее на раздаче с 1.00 по МСК 2 мбит/сpb.wtf



25-04-2012 15:03 Искатель Скачать торрент  

Добавлена 9 серия!
Пожалуйста обновите торрент-файл!
Приятного просмотра!
Спасибо!
p.s отображение "спойлеров" не мой косяк, даже не менял ничего кроме колличества серийpb.wtf



29-04-2012 10:50 Искатель Скачать торрент  

Добавлена 10 серия!
Пожалуйста обновите торрент-файл!
Приятного просмотра!
Спасибо!
pb.wtf



10-05-2012 18:22 Искатель Скачать торрент  

Добавлена 11 серия!
Пожалуйста обновите торрент-файл!
Приятного просмотра!
Спасибо!
Сериал не продлен на 2 сезон=(
pb.wtf



    Дорогой пользователь! Огромная просьба, поблагодарите релизера, оцените раздачу и оставьте свои комментарий, если Вы скачали Искатель через торрент бесплатно! Внесите свою лепту в развитие PiratBit!
    Комментировать посты могут только пользователи прошедшие не сложную регистрацию
    Показать сообщения:    

    Искатель через торрент
    Скачать бесплатно Искатель
    Искатель скачать торрент
    Искатель смотреть онлайн
    Cкачать фильм Искатель бесплатно
    Искатель скачать торрент в хорошем качестве
    Искатель смотреть онлайн бесплатно в хорошем качестве


    Вы не можете начинать темы
    Вы не можете отвечать на сообщения
    Вы не можете редактировать свои сообщения
    Вы не можете удалять свои сообщения
    Вы не можете голосовать в опросах
    Вы не можете прикреплять файлы к сообщениям
    Вы можете скачивать файлы