Ссылка на приватное зеркало нашего сайта всего за 1$. Внимание количество ограничено!!!

2 сезон

iTunes

1 сезон

1

iTunes

iTunes

iTunes

1 сезон

RePack

30

ИГРА 18+

pack

ВАЖНО

!!Акция!!

Alien_RageХит недели

RePack

MK11
pack

Забери бонус

RePack

jed

!!Акция!!

Alien_Rage

RePack

fifa19

RePack

Assassins Creed: Odyssey

RePack

NEED FOR SPEED™ PAYBACK

4 сезон

9 сезон

Бесстыжие 9 сезон

Все сериалы

все сериалы на PB.wtf

RePack

FAR CRY 5
  

Цирк «Колумбия» / Cirkus Columbia (Данис Танович) [2010 г., драма, DVDRip, Профессиональный (многоголосый)] pb.wtf

Цирк «Колумбия» через торрент pb.wtf

Размер: 1.46 GB | Добавлен: 8 лет 6 мес. назад | Торрент скачан:30 раз
Скачать  

19-04-2012 17:33 Цирк «Колумбия» Скачать торрент  

[font=Tahoma]Цирк «Колумбия» / Cirkus Columbia

Год выпуска: 2010
Страна: Германия, Франция, Великобритания, Словения, Бельгия, Сербия, Босния и Герцеговина
Жанр: драма
Продолжительность: 01:46:13
Перевод: Профессиональный (многоголосый)

Режиссер: Данис Танович
Продюссер: Амра Баксис Камо, Mirsad Purivatra, Марк Башет
Сценарий: Данис Танович, Ivica Djikic

Премьера в мире: 23 июля 2010

Мировой рейтинг IMDB 7.00 (921)


В ролях: Мики Манойлович, Мира Фурлан, Борис Лер, Jelena Stupljanin, Милан Штрлич, Марио Кнезович, Светислав Гончич, Almir Mehic, Мырза Танович, Miralem Zupcevic

Описание: 1991 год. Небольшой городок на юге Герцеговины. После многих лет коммунистического режима настала очередь демократических перемен. В стране произошли свободные выборы, к власти пришли новые люди. Все это означает, что беглецы, проведшие многие годы вдали от Родины, могут вернуться домой. Один из таких политических беженцев, Дивко Бунтич, по возвращении в город детства начинает осуществлять личную месть своим обидчикам. Он вернулся не с пустыми руками: новая, на сорок лет младше его, жена, новый «Мерседес», черный кот и внушительный банковский счет.Первым актом отмщения для Дивко становится вышвыривание экс жены и сына из их старого дома. Благодаря деньгам Дивко побеждает во всех своих делах и, кажется, что ничто не помешает достичь герою полной сатисфакции. Но жизнь бывает полна сюрпризов: надвигающаяся война рассудит по-своему.

Качество: DVDRip
Формат: AVI
Видео кодек: XviD
Аудио кодек: MP3
Видео: 1 719 Kbps, 720 pixels х 304 pixels, 25.000 fps, 0.314
Аудио#1: 128 Kbps, 2 channels, 48.0 KHz (Russian)
Аудио#2: 112 Kbps, 2 channels, 44.1 KHz (German)









Format : AVI
Format/Info : Audio Video Interleave
File size : 1.46 GiB
Duration : 1h 46mn
Overall bit rate : 1 973 Kbps
Writing application : VirtualDubMod 1.5.10.3 | www.virtualdub-fr.org || (build 2550/release)
Writing library : VirtualDubMod build 2550/release

Video
ID : 0
Format : MPEG-4 Visual
Format profile : Advanced Simple@L5
Format settings, BVOP : 2
Format settings, QPel : No
Format settings, GMC : No warppoints
Format settings, Matrix : Default (H.263)
Muxing mode : Packed bitstream
Codec ID : XVID
Codec ID/Hint : XviD
Duration : 1h 46mn
Bit rate : 1 719 Kbps
Width : 720 pixels
Height : 304 pixels
Display aspect ratio : 2.35:1
Frame rate : 25.000 fps
Color space : YUV
Chroma subsampling : 4:2:0
Bit depth : 8 bits
Scan type : Progressive
Compression mode : Lossy
Bits/(Pixel*Frame) : 0.314
Stream size : 1.28 GiB (87%)
Writing library : XviD 1.2.0SMP (UTC 2006-01-08)

Audio #1
ID : 1
Format : MPEG Audio
Format version : Version 1
Format profile : Layer 3
Mode : Joint stereo
Codec ID : 55
Codec ID/Hint : MP3
Duration : 1h 46mn
Bit rate mode : Constant
Bit rate : 128 Kbps
Channel(s) : 2 channels
Sampling rate : 48.0 KHz
Compression mode : Lossy
Stream size : 97.3 MiB (6%)
Alignment : Aligned on interleaves
Interleave, duration : 40 ms (1.00 video frame)
Interleave, preload duration : 504 ms

Audio #2
ID : 2
Format : MPEG Audio
Format version : Version 1
Format profile : Layer 3
Codec ID : 55
Codec ID/Hint : MP3
Duration : 1h 46mn
Bit rate mode : Constant
Bit rate : 112 Kbps
Channel(s) : 2 channels
Sampling rate : 44.1 KHz
Compression mode : Lossy
Stream size : 85.1 MiB (6%)
Alignment : Split accross interleaves
Interleave, duration : 40 ms (1.00 video frame)
Interleave, preload duration : 500 ms
Writing library : LAME3.98r
Encoding settings : -m s -V 4 -q 2 -lowpass 15.6 -b 112

pb.wtf



Скачать Цирк «Колумбия» через торрент http://pic.kartinco.top/images/2000/vk2ijxou2v.jpg Скачать фильм Цирк «Колумбия» через торрент бесплантно в хорошем качестве Описание: 1991 год. Небольшой городок на юге Герцеговины. После многих лет коммунистического режима настала очередь демократических ... 4.8 10 4
Info! Золотая раздача, скачанное не засчитывается.
Торрент: Зарегистрирован [2012-04-19 17:33] · скачан: 30 раз
Статус: √ проверено
Размер: 1.46 GB
Как cкачать? Как скачать Цирк «Колумбия» через торрент | qTorrent

% Раздел Тема Автор DL S | L
Фильмы (DVD фильмы) [ 3.97 GB ] Цирк «Колумбия» / Cirkus Columbia [2010 DVD5 ] shuller Скачать
1 | 0

28-11-2019 20:33  

Отключить всю рекламу на сайте

    Дорогой пользователь! Огромная просьба, поблагодарите релизера, оцените раздачу и оставьте свои комментарий, если Вы скачали Цирк «Колумбия» через торрент бесплатно! Внесите свою лепту в развитие PiratBit!
    Комментировать посты могут только пользователи прошедшие не сложную регистрацию
    Показать сообщения:    

    Цирк «Колумбия» через торрент
    Скачать бесплатно Цирк «Колумбия»
    Цирк «Колумбия» скачать торрент
    Цирк «Колумбия» смотреть онлайн
    Cкачать фильм Цирк «Колумбия» бесплатно
    Цирк «Колумбия» скачать торрент в хорошем качестве
    Цирк «Колумбия» смотреть онлайн бесплатно в хорошем качестве


    Вы не можете начинать темы
    Вы не можете отвечать на сообщения
    Вы не можете редактировать свои сообщения
    Вы не можете удалять свои сообщения
    Вы не можете голосовать в опросах
    Вы не можете прикреплять файлы к сообщениям
    Вы можете скачивать файлы