Ссылка на приватное зеркало нашего сайта всего за 1$. Внимание количество ограничено!!!

2 сезон

iTunes

1 сезон

1

iTunes

iTunes

iTunes

1 сезон

RePack

30

ИГРА 18+

pack

ВАЖНО

!!Акция!!

Alien_RageХит недели

RePack

MK11
pack

Забери бонус

RePack

jed

!!Акция!!

Alien_Rage

RePack

fifa19

RePack

Assassins Creed: Odyssey

RePack

NEED FOR SPEED™ PAYBACK

4 сезон

9 сезон

Бесстыжие 9 сезон

Все сериалы

все сериалы на PB.wtf

RePack

FAR CRY 5
  

Армагеддон / Armageddon (Майкл Бэй) [1998, фантастика, боевик, триллер, приключения, BDRip 720p] DUB + ORG / от R.G. nICE Films pb.wtf

Армагеддон через торрент pb.wtf

Размер: 6.21 GB | Добавлен: 8 лет 5 мес. назад | Торрент скачан:48 раз
Скачать  

21-04-2012 15:30 Армагеддон Скачать торрент  

Армагеддон / Armageddon
«Во имя любви. Во имя чести. Во имя человечества.»



Год выпуска: 1998
Страна: США
Жанр: фантастика, боевик, триллер, приключения
Продолжительность: 02:30:50
Перевод: Профессиональный (полное дублирование)
Оригинальная дорожка: Английская

Режиссер: Майкл Бэй

В ролях: Брюс Уиллис, Бен Аффлек, Лив Тайлер, Уилл Пэттон, Билли Боб Торнтон, Стив Бушеми, Уильям Фихтнер, Оуэн Уилсон, Майкл Кларк Дункан, Петер Стормаре

Описание: Тень гигантского астероида легла на Землю. До рокового столкновения остаются считанные дни. Наступает Армагеддон, трагический финал мировой истории. Чтобы предотвратить катастрофу, необходимо чудо — или совместные усилия лучших из лучших вместе с технологической мощью всего созданного человеком. Сможет ли горстка людей противостоять вселенской стихии?..

|

Качество: BDRip 720p (Rip by Phoenix)
Исходник: Blu Ray
Формат: MKV
Видео кодек: H.264
Аудио кодек: AC3
Видео: H.264, 1280*528, 23,976 кадр/сек, ~5000 Кбит/сек, 0.309 Бит/(Пиксели*Кадры)
Аудио 1: AC3, 448 Кбит/сек, 6 каналов, 48,0 КГц [Дубляж]
Аудио 2: AC3, 448 Кбит/сек, 6 каналов, 48,0 КГц [Оригинал]

Код:

-[NoImage] x264 [info]: frame I:5212  Avg QP:17.07  size: 72568  PSNR Mean Y:46.71 U:47.34 V:49.38 Avg:47.13 Global:46.77
-[NoImage] x264 [info]: frame P:145393 Avg QP:19.36  size: 29831  PSNR Mean Y:44.17 U:45.03 V:47.45 Avg:44.67 Global:44.33
-[NoImage] x264 [info]: frame B:66383 Avg QP:21.16  size: 14149  PSNR Mean Y:42.78 U:43.90 V:46.85 Avg:43.38 Global:42.97

Код:

Общее
Уникальный идентификатор         : 245707852983581649918433000519122095452 (0xB8D99C7531505677BE93FE41730D0D5C)
Полное имя                       : G:\Video\Армагеддон Rip by Phoenix.mkv
Формат                           : Matroska
Размер файла                     : 6,21 Гбайт
Продолжительность                : 2 ч. 30 м.
Общий поток                      : 5897 Кбит/сек
Дата кодирования                 : UTC 2012-04-21 15:45:46
Программа кодирования            : mkvmerge v5.2.1 ('A Far Off Place') built on Jan  2 2012 23:21:10
Библиотека кодирования           : libebml v1.2.3 + libmatroska v1.3.0

Видео
Идентификатор                    : 1
Формат                           : AVC
Формат/Информация                : Advanced Video Codec
Профиль формата                  : High@L4.1
Параметр CABAC формата           : Да
Параметр ReFrames формата        : 11 кадры
Идентификатор кодека             : V_MPEG4/ISO/AVC
Продолжительность                : 2 ч. 30 м.
Битрейт                          : 4999 Кбит/сек
Ширина                           : 1280 пикс.
Высота                           : 528 пикс.
Соотношение сторон               : 2,40:1
Частота кадров                   : 23,976 кадр/сек
Цветовое пространство            : YUV
Подвыборка цветности             : 4:2:0
Битовая глубина                  : 8 бит
Тип развёртки                    : Прогрессивная
Бит/(Пиксели*Кадры)              : 0.309
Размер потока                    : 5,14 Гбайт (83%)
Заголовок                        : Rip by Phoenix
Библиотека кодирования           : x264 core 120 r2164 da19765
Настройки программы              : cabac=1 / ref=12 / deblock=1:-3:-3 / analyse=0x3:0x113 / me=umh / subme=9 / psy=1 / psy_rd=1.00:0.00 / mixed_ref=1 / me_range=32 / chroma_me=1 / trellis=2 / 8x8dct=1 / cqm=0 / deadzone=21,11 / fast_pskip=1 / chroma_qp_offset=-2 / threads=4 / sliced_threads=0 / nr=0 / decimate=1 / interlaced=0 / bluray_compat=0 / constrained_intra=0 / bframes=7 / b_pyramid=1 / b_adapt=1 / b_bias=0 / direct=1 / weightb=1 / open_gop=0 / weightp=2 / keyint=240 / keyint_min=23 / scenecut=40 / intra_refresh=0 / rc_lookahead=40 / rc=2pass / mbtree=1 / bitrate=4999 / ratetol=1.0 / qcomp=0.70 / qpmin=10 / qpmax=51 / qpstep=4 / cplxblur=20.0 / qblur=0.5 / ip_ratio=1.40 / aq=1:1.00
Язык                             : English

Аудио #1
Идентификатор                    : 2
Формат                           : AC-3
Формат/Информация                : Audio Coding 3
Расширение режима                : CM (complete main)
Идентификатор кодека             : A_AC3
Продолжительность                : 2 ч. 30 м.
Вид битрейта                     : Постоянный
Битрейт                          : 448 Кбит/сек
Канал(ы)                         : 6 канала(ов)
Расположение каналов             : Front: L C R, Side: L R, LFE
Частота                          : 48,0 КГц
Битовая глубина                  : 16 бит
Метод сжатия                     : С потерями
Размер потока                    : 483 Мбайт (8%)
Заголовок                        : Дубляж
Язык                             : Russian

Аудио #2
Идентификатор                    : 3
Формат                           : AC-3
Формат/Информация                : Audio Coding 3
Расширение режима                : CM (complete main)
Идентификатор кодека             : A_AC3
Продолжительность                : 2 ч. 30 м.
Вид битрейта                     : Постоянный
Битрейт                          : 448 Кбит/сек
Канал(ы)                         : 6 канала(ов)
Расположение каналов             : Front: L C R, Side: L R, LFE
Частота                          : 48,0 КГц
Битовая глубина                  : 16 бит
Метод сжатия                     : С потерями
Размер потока                    : 483 Мбайт (8%)
Заголовок                        : Оригинал
Язык                             : English

скриншот  скриншот  скриншот  скриншот  скриншот  скриншот  скриншот  скриншот  
pb.wtf



Скачать Армагеддон через торрент http://s002.youpic.su/pictures/1334952000/9f1160142b5ff666b7b18f9a069653cd.png Скачать фильм Армагеддон через торрент бесплантно в хорошем качестве Описание: Тень гигантского астероида легла на Землю. До рокового столкновения остаются считанные дни. Наступает Армагеддон, трагический ... 10 10 2
Info! Золотая раздача, скачанное не засчитывается.
Торрент: Зарегистрирован [2012-04-21 15:30] · скачан: 48 раз
Статус: √ проверено
Размер: 6.21 GB
Как cкачать? Как скачать Армагеддон через торрент | qTorrent

28-11-2019 20:33  

Отключить всю рекламу на сайте

    Дорогой пользователь! Огромная просьба, поблагодарите релизера, оцените раздачу и оставьте свои комментарий, если Вы скачали Армагеддон через торрент бесплатно! Внесите свою лепту в развитие PiratBit!
    Комментировать посты могут только пользователи прошедшие не сложную регистрацию
    Показать сообщения:    

    Армагеддон через торрент
    Скачать бесплатно Армагеддон
    Армагеддон скачать торрент
    Армагеддон смотреть онлайн
    Cкачать фильм Армагеддон бесплатно
    Армагеддон скачать торрент в хорошем качестве
    Армагеддон смотреть онлайн бесплатно в хорошем качестве


    Вы не можете начинать темы
    Вы не можете отвечать на сообщения
    Вы не можете редактировать свои сообщения
    Вы не можете удалять свои сообщения
    Вы не можете голосовать в опросах
    Вы не можете прикреплять файлы к сообщениям
    Вы можете скачивать файлы