Ссылка на приватное зеркало нашего сайта всего за 1$. Внимание количество ограничено!!!

2 сезон

iTunes

1 сезон

1

iTunes

iTunes

iTunes

1 сезон

RePack

30

ИГРА 18+

pack

ВАЖНО

!!Акция!!

Alien_RageХит недели

RePack

MK11
pack

Забери бонус

RePack

jed

!!Акция!!

Alien_Rage

RePack

fifa19

RePack

Assassins Creed: Odyssey

RePack

NEED FOR SPEED™ PAYBACK

4 сезон

9 сезон

Бесстыжие 9 сезон

Все сериалы

все сериалы на PB.wtf

RePack

FAR CRY 5
  

Другой мир: Пробуждение / Underworld: Awakening (Монс Морлинд, Бьёрн Стейн) [2012 г., ужасы, фэнтези, боевик, BDRip (1080p), DUB + Оригинал] pb.wtf

Другой мир: Пробуждение через торрент pb.wtf

Размер: 6.67 GB | Добавлен: 8 лет 6 мес. назад | Торрент скачан:254 раза
Скачать  

22-04-2012 12:56 Другой мир: Пробуждение Скачать торрент  

Другой мир: Пробуждение / Underworld: Awakening
[font="Georgia"]
Год выпуска: 2012 г.
Страна: США
Жанр:ужасы, фэнтези, боевикПродолжительность: 01:28:34
Перевод: Профессиональный (полное дублирование) [Лицензия] + Оригинал (Английский)

Режиссер: Монс Морлинд, Бьёрн Стейн

В ролях: Кейт Бекинсейл, Стивен Ри, Майкл Или, Тео Джеймс, Индия Айли, Чарльз Дэнс, Кристен Холден-Рид, Сандрин Холт, Ричард Цетрон, Сэнни Ван Хетерен

Описание: Через 12 лет в состоянии, близком к коматозному, Селин узнает о существовании родной дочери Евы — гибрида вампира и ликана. И Селин необходимо помешать БиоКом создать суперликанов, которые убьют их всех.
Качество: BDRip 1080p |Underworld Awakening 2012 1080p Blu-ray Remux AVC DTS-HD MA 5.1 - KRaLiMaRKo
Формат: MKV
Видео кодек: H.264
Аудио кодек: AC3
Видео: 1920x800 23.976 fps 9 875 Kbps 0.262 Bits/(Pixel*Frame)
Аудио: 48 kHz, AC3 Dolby Digital, 3/2 (L,C,R,l,r) + LFE ch, ~ 448 kbps avg
Аудио 2: 48 kHz, AC3 Dolby Digital, 3/2 (L,C,R,l,r) + LFE ch, ~ 448 kbps avg
Субтитры: Русские/Английские | Полные


Format : Matroska
File size : 6.67 GiB
Duration : 1h 28mn
Overall bit rate : 10.8 Mbps
Encoded date : UTC 2012-04-22 12:17:36
Writing application : mkvmerge v4.0.0 ('The Stars were mine') built on Jun 6 2010 16:18:42
Writing library : libebml v1.0.0 + libmatroska v1.0.0
Video #1
ID : 1
Format : AVC
Format/Info : Advanced Video Codec
Format profile : High@L4.1
Format settings, CABAC : Yes
Format settings, ReFrames : 5 frames
Muxing mode : Container profile=Unknown@4.1
Codec ID : V_MPEG4/ISO/AVC
Duration : 1h 28mn
Bit rate : 9 662 Kbps
Nominal bit rate : 9 875 Kbps
Width : 1 920 pixels
Height : 800 pixels
Display aspect ratio : 2.40:1
Frame rate : 23.976 fps
Resolution : 24 bits
Colorimetry : 4:2:0
Scan type : Progressive
Bits/(Pixel*Frame) : 0.262
Stream size : 5.97 GiB (90%)
Writing library : x264 core 119 r2106 07efeb4
Encoding settings : cabac=1 / ref=5 / deblock=1:-2:-1 / analyse=0x3:0x113 / me=umh / subme=10 / psy=1 / psy_rd=0.96:0.06 / mixed_ref=1 / me_range=32 / chroma_me=1 / trellis=2 / 8x8dct=1 / cqm=0 / deadzone=21,11 / fast_pskip=0 / chroma_qp_offset=-3 / threads=6 / sliced_threads=0 / nr=0 / decimate=0 / interlaced=0 / bluray_compat=0 / constrained_intra=0 / bframes=9 / b_pyramid=2 / b_adapt=2 / b_bias=0 / direct=3 / weightb=1 / open_gop=0 / weightp=2 / keyint=240 / keyint_min=22 / scenecut=40 / intra_refresh=0 / rc_lookahead=60 / rc=2pass / mbtree=1 / bitrate=9875 / ratetol=1.0 / qcomp=0.60 / qpmin=0 / qpmax=69 / qpstep=4 / cplxblur=20.0 / qblur=0.5 / ip_ratio=1.40 / aq=1:0.90
Audio #2
ID : 2
Format : AC-3
Format/Info : Audio Coding 3
Codec ID : A_AC3
Duration : 1h 28mn
Bit rate mode : Constant
Bit rate : 448 Kbps
Channel(s) : 6 channels
Channel positions : Front: L C R, Surround: L R, LFE
Sampling rate : 48.0 KHz
Stream size : 284 MiB (4%)
Title : Дубляж
Language : Russian
Audio #3
ID : 3
Format : AC-3
Format/Info : Audio Coding 3
Codec ID : A_AC3
Duration : 1h 28mn
Bit rate mode : Constant
Bit rate : 448 Kbps
Channel(s) : 6 channels
Channel positions : Front: L C R, Surround: L R, LFE
Sampling rate : 48.0 KHz
Stream size : 284 MiB (4%)
Title : Оригинал
Text #4
ID : 4
Format : UTF-8
Codec ID : S_TEXT/UTF8
Codec ID/Info : UTF-8 Plain Text
Title : full
Language : Russian
Text #5
ID : 5
Format : UTF-8
Codec ID : S_TEXT/UTF8
Codec ID/Info : UTF-8 Plain Text
Title : full




pb.wtf



Скачать Другой мир: Пробуждение через торрент http://i36.fastpic.ru/big/2012/0419/2a/641ea1cb541e170e829aab3e46eaa42a.png Скачать фильм Другой мир: Пробуждение через торрент бесплантно в хорошем качестве Описание: Через 12 лет в состоянии, близком к коматозному, Селин узнает о существовании родной дочери Евы — гибрида вампира и ликана. И ... 9.1 10 9
Info! Золотая раздача, скачанное не засчитывается.
Торрент: Зарегистрирован [2012-04-22 12:56] · скачан: 254 раз
Статус: √ проверено
Размер: 6.67 GB
Как cкачать? Как скачать Другой мир: Пробуждение через торрент | qTorrent

% Раздел Тема Автор DL S | L
Фильмы [HD 720p, 1080p] (Хороший звук DUB, MVO) [ 5.16 GB ] Другой мир: Пробуждение / Underworld: Awakening [2012 BDRip DUB + Оригинал+Укр] ~Relizer~ Скачать
1 | 0

28-11-2019 20:33  

Отключить всю рекламу на сайте

    Дорогой пользователь! Огромная просьба, поблагодарите релизера, оцените раздачу и оставьте свои комментарий, если Вы скачали Другой мир: Пробуждение через торрент бесплатно! Внесите свою лепту в развитие PiratBit!
    Комментировать посты могут только пользователи прошедшие не сложную регистрацию
    Показать сообщения:    

    Другой мир: Пробуждение через торрент
    Скачать бесплатно Другой мир: Пробуждение
    Другой мир: Пробуждение скачать торрент
    Другой мир: Пробуждение смотреть онлайн
    Cкачать фильм Другой мир: Пробуждение бесплатно
    Другой мир: Пробуждение скачать торрент в хорошем качестве
    Другой мир: Пробуждение смотреть онлайн бесплатно в хорошем качестве


    Вы не можете начинать темы
    Вы не можете отвечать на сообщения
    Вы не можете редактировать свои сообщения
    Вы не можете удалять свои сообщения
    Вы не можете голосовать в опросах
    Вы не можете прикреплять файлы к сообщениям
    Вы можете скачивать файлы