2 сезон

iTunes

MVO

1

2 сезон

iTunes

iTunes

1 сезон

RePack

30

Новинка

ВАЖНО

ИГРА 18+

pack

RePack

MK11
pack

Легкие деньги

RePack

jed

RePack

fifa19

RePack

RDR2

RePack

NEED FOR SPEED™ PAYBACK

4 сезон

9 сезон

Бесстыжие 9 сезон

Все сериалы

все сериалы на PB.wtf

RePack

FAR CRY 5

Anonymous, доброе утро, мы не успеваем собрать деньги на оплату серверов за декабрь и январь, помогите нам пожалуйста в это трудное время. В качестве благодарности мы отключим Вам всю рекламу на сайте (укажите свой ник в строку Ваше имя)!

×
  
Magnet ссылка

[AndreaNobiliProductions] Claudia Polansky & Jo (The T-Madam) [20.04.2012г., Tranny, Lingerie, Luxury, All Sex, SiteRip] pb.wtf

через торрент pb.wtf

Размер: 472 MB | Добавлен: 8 лет 8 мес. назад | Торрент скачан:88 раз
Скачать  

23-04-2012 08:40 Скачать торрент  

[font="sans-serif"][AndreaNobiliProductions.com]
Claudia Polansky & Jo
The T-Madam
[20.04.2012г.]

[font="sans-serif"]Год производства: 2012 г.
Жанр: Tranny, Lingerie, Luxury, All Sex
Продолжительность: 00:32:05

Студия: AndreaNobiliProductions.com
В ролях: Claudia Polansky & Jo

Качество видео: SiteRip
Формат видео: MP4
Видео кодек: AVC
Аудио кодек: AAC
Видео: 25.000 fps, 1 953 Kbps, 720x480
Аудио: 128 Kbps, 2 channels, 48.0 KHz


[font="sans-serif"]Описание:

[font="sans-serif"]The T-Madam doesn't talk too much, but does a lot.
She and her victim seem to enjoy very much...

General
Complete name : The T-madam.mp4
Format : MPEG-4
Format profile : Base Media
Codec ID : isom
File size : 472 MiB
Duration : 32mn 5s
Overall bit rate mode : Variable
Overall bit rate : 2 057 Kbps
Movie name : ita1_3.mp4
Writing application : Lavf52.108.0

Video
ID : 1
Format : AVC
Format/Info : Advanced Video Codec
Format profile : High@L3.0
Format settings, CABAC : Yes
Format settings, ReFrames : 4 frames
Codec ID : avc1
Codec ID/Info : Advanced Video Coding
Duration : 32mn 5s
Bit rate : 1 953 Kbps
Width : 720 pixels
Height : 480 pixels
Display aspect ratio : 3:2
Frame rate mode : Constant
Frame rate : 25.000 fps
Standard : NTSC
Color space : YUV
Chroma subsampling : 4:2:0
Bit depth : 8 bits
Scan type : Progressive
Bits/(Pixel*Frame) : 0.226
Stream size : 448 MiB (95%)
Color primaries : BT.601-6 525, BT.1358 525, BT.1700 NTSC, SMPTE 170M
Transfer characteristics : BT.709-5, BT.1361
Matrix coefficients : BT.601-6 525, BT.1358 525, BT.1700 NTSC, SMPTE 170M

Audio
ID : 2
Format : AAC
Format/Info : Advanced Audio Codec
Format profile : LC
Codec ID : 40
Duration : 32mn 5s
Bit rate mode : Variable
Bit rate : 96.0 Kbps
Maximum bit rate : 128 Kbps
Channel(s) : 2 channels
Channel positions : Front: L R
Sampling rate : 48.0 KHz
Compression mode : Lossy
Delay relative to video : -4s 4ms
Stream size : 22.0 MiB (5%)
pb.wtf



pack Скачать через торрент http://i27.fastpic.ru/big/2012/0330/af/1845a3bc48a38a36df131da116e9ceaf.jpg Скачать фильм [AndreaNobiliProductions] Claudia Polansky & Jo через торрент бесплантно в хорошем качестве Описание: [font="sans-serif"]The T-Madam doesn't talk too much, but does a lot.She and her victim seem to enjoy very much... ... 5 10 1
Info! Золотая раздача, скачанное не засчитывается.
Торрент: Зарегистрирован [2012-04-23 08:40] · скачан: 88 раз
Статус: √ проверено
Размер: 472 MB
Как cкачать? Как скачать через торрент | UTorrent

28-11-2019 20:33  

Отключить всю рекламу на сайте

    Дорогой пользователь! Огромная просьба, поблагодарите релизера, оцените раздачу и оставьте свои комментарий, если Вы скачали через торрент бесплатно! Внесите свою лепту в развитие PiratBit!
    Комментировать посты могут только пользователи прошедшие не сложную регистрацию
    Показать сообщения:    

    через торрент
    Скачать бесплатно
    скачать торрент
    смотреть онлайн
    Cкачать фильм бесплатно
    скачать торрент в хорошем качестве
    смотреть онлайн бесплатно в хорошем качестве


    Вы не можете начинать темы
    Вы не можете отвечать на сообщения
    Вы не можете редактировать свои сообщения
    Вы не можете удалять свои сообщения
    Вы не можете голосовать в опросах
    Вы не можете прикреплять файлы к сообщениям
    Вы можете скачивать файлы