Аватар: Путь воды

Лицензия

Сансара

1 сезон

скачать смотреть онлайн John Wick Chapter 4

MVO

Крик 6

Дубляж

13 клиническая

3 сезон

Восстание зловещих мертвецов

Дубляж

Одни из нас

Дубляж

Dead Island 2 Gold

Gold

Deluxe

Deluxe

pack

Рекомендуем

ВАЖНО

ВАЖНО

30

Repack

The Lord of the Rings: Gollum

Лицензия

jed

RePack

nioh2

RePack

RDR2

RePack

NEED FOR SPEED™ PAYBACK

RePack

скачать торрент

Кинопоиск HD

Острые козырьки 6 сезон

6 сезон

FAR CRY 6

RePack

скачать торрент

Лицензия

скачать торрент

MVO

1

1 сезон

скачать торрент

1 сезон

скачать торрент

Лицензия

  

Шерлок Холмс: Игра теней / Sherlock Holmes: A Game of Shadows (Гай Ричи) [2011 г., боевик, триллер, криминал, детектив, приключения, BDRip 720p] Дубляж [ лицензия ]

Шерлок Холмс: Игра теней через торрент pb.wtf

Размер: 6.95 GB | Добавлен: 11 лет назад | Торрент скачан:1172 раза
Смотреть онлайн | Скачать | Поддержите нас   

23-04-2012 21:11 Шерлок Холмс: Игра теней Скачать торрент  

Шерлок Холмс: Игра теней / Sherlock Holmes: A Game of Shadows

Год выпуска: 2011
Страна: США
Жанр: боевик, триллер, криминал, детектив, приключения
Продолжительность: 02:08:44
Перевод: Профессиональный (полное дублирование) [Лицензия]
Режиссер: Гай Ричи
Продюссер: Сьюзан Дауни, Дэн Лин, Джоэл Силвер
Сценарий: Киран Малруни, Мишель Малруни, Артур Конан Дойл
Бюджет: $125 000 000
Премьера в мире: 10 декабря 2011
Премьера в РФ: 29 декабря 2011, «Каро-Премьер»
В ролях: Роберт Дауни мл., Джуд Лоу, Нуми Рапас, Джаред Харрис, Пол Андерсон, Стивен Фрай, Рэйчел МакАдамс, Келли Райлли, Джеральдин Джеймс, Эдди Марсан
Описание: 1891 год. В Вене и Страсбурге проходит серия терактов, организованных анархистами или националистами, а по всей Европе происходят таинственные убийства. Шерлок Холмс считает, что за всем этим стоит профессор Джеймс Мориарти — математический гений, автор знаменитых лекций и трудов.
PG-13 - Детям до 13 лет просмотр не желателен
7.60 (87 909)

Качество: BDRip 720p
Формат: MKV
Видео кодек: H.26x
Аудио кодек: AC3 / DTS
Видео: 1280x534 (2.40:1), 23.976 fps, 5770 kbрs
Аудио 1: AC3 Dolby Digital, 3/2 (L,C,R,l,r) + LFE ch, ~448.00 kbps avg [Дубляж]
Аудио 2: DTS, 3/2 (L,C,R,l,r) + LFE ch, ~1510 kbps avg [Оригинал]
Субтитры: Русские, английские

Общее
Уникальный идентификатор : 218076363829498511889433066440528851344 (0xA40FFADC720D81D4A302A4B8FD817190)
Полное имя : D:\торренты\Шерлок Холмс Игра теней.mkv
Формат : Matroska
Версия формата : Version 2
Размер файла : 6,95 Гбайт
Продолжительность : 2 ч. 8 м.
Общий поток : 7724 Кбит/сек
Дата кодирования : UTC 2012-04-23 20:05:53
Программа кодирования : mkvmerge v5.5.0 ('Healer') built on Apr 6 2012 21:43:24
Библиотека кодирования : libebml v1.2.3 + libmatroska v1.3.0

Видео
Идентификатор : 1
Формат : AVC
Формат/Информация : Advanced Video Codec
Профиль формата : [email protected]
Параметр CABAC формата : Да
Параметр ReFrames формата : 12 кадров
Режим смешивания : Header stripping
Идентификатор кодека : V_MPEG4/ISO/AVC
Продолжительность : 2 ч. 8 м.
Битрейт : 5770 Кбит/сек
Ширина : 1280 пикселей
Высота : 534 пикселя
Соотношение сторон : 2,40:1
Частота кадров : 23,976 кадра/сек
Цветовое пространство : YUV
Субдискретизация насыщенности : 4:2:0
Битовая глубина : 8 бит
Тип развёртки : Прогрессивная
Бит/(Пиксели*Кадры) : 0.352
Размер потока : 5,05 Гбайт (73%)
Библиотека кодирования : x264 core 122 r2184 5c85e0a
Настройки программы : cabac=1 / ref=12 / deblock=1:-3:-3 / analyse=0x3:0x113 / me=umh / subme=10 / psy=1 / psy_rd=1.10:0.00 / mixed_ref=1 / me_range=32 / chroma_me=1 / trellis=2 / 8x8dct=1 / cqm=0 / deadzone=21,11 / fast_pskip=0 / chroma_qp_offset=-4 / threads=18 / sliced_threads=0 / nr=0 / decimate=0 / interlaced=0 / bluray_compat=0 / constrained_intra=0 / bframes=8 / b_pyramid=2 / b_adapt=2 / b_bias=0 / direct=3 / weightb=1 / open_gop=0 / weightp=2 / keyint=250 / keyint_min=23 / scenecut=40 / intra_refresh=0 / rc_lookahead=48 / rc=2pass / mbtree=1 / bitrate=5770 / ratetol=1.0 / qcomp=0.60 / qpmin=0 / qpmax=69 / qpstep=4 / cplxblur=20.0 / qblur=0.5 / ip_ratio=1.40 / aq=1:0.80
Default : Нет
Forced : Нет

Аудио #1
Идентификатор : 2
Формат : AC-3
Формат/Информация : Audio Coding 3
Расширение режима : CM (complete main)
Режим смешивания : Header stripping
Идентификатор кодека : A_AC3
Продолжительность : 2 ч. 8 м.
Вид битрейта : Постоянный
Битрейт : 448 Кбит/сек
Каналы : 6 каналов
Расположение каналов : Front: L C R, Side: L R, LFE
Частота : 48,0 КГц
Битовая глубина : 16 бит
Метод сжатия : С потерями
Размер потока : 413 Мбайт (6%)
Заголовок : Дубляж
Язык : Russian
Default : Да
Forced : Нет

Аудио #2
Идентификатор : 3
Формат : DTS
Формат/Информация : Digital Theater Systems
Режим смешивания : Header stripping
Идентификатор кодека : A_DTS
Продолжительность : 2 ч. 8 м.
Вид битрейта : Постоянный
Битрейт : 1510 Кбит/сек
Каналы : 6 каналов
Расположение каналов : Front: L C R, Side: L R, LFE
Частота : 48,0 КГц
Битовая глубина : 24 бит
Метод сжатия : С потерями
Размер потока : 1,36 Гбайт (20%)
Язык : English
Default : Нет
Forced : Нет

Текст #1
Идентификатор : 4
Формат : UTF-8
Идентификатор кодека : S_TEXT/UTF8
Идентификатор кодека/Информация : UTF-8 Plain Text
Язык : Russian
Default : Да
Forced : Нет

Текст #2
Идентификатор : 5
Формат : UTF-8
Идентификатор кодека : S_TEXT/UTF8
Идентификатор кодека/Информация : UTF-8 Plain Text
Язык : English
Default : Нет
Forced : Нет

скриншот  скриншот  скриншот  скриншот  скриншот  




Скачать Шерлок Холмс: Игра теней через торрент https://pic1.kartinco.top/images/2000/knjvyscti8.png Скачать, смотреть онлайн Шерлок Холмс: Игра теней бесплатно в хорошем качестве Описание: 1891 год. В Вене и Страсбурге проходит серия терактов, организованных анархистами или националистами, а по всей Европе происходят ... 9.9 10 10
Info! Золотая раздача, скачанное не засчитывается.
Торрент: Зарегистрирован [2012-04-23 21:11] · скачан: 1 172 раз
Статус: √ проверено
Размер: 6.95 GB
Как cкачать? Как скачать Шерлок Холмс: Игра теней через торрент | UTorrent

% Раздел Тема Автор DL S | L
Ultra HD (UHD: 2K, 4K, 8K) [ 63.66 GB ] Шерлок Холмс: Игра теней / Sherlock Holmes: A Game of Shadows | Лицензия | 2160p bober100 Скачать
2 | 0
T Фильмы с авторской озвучкой [ 2.19 GB ] Шерлок Холмс: Игра теней / Sherlock Holmes: A Game of Shadows | AVO | 1080p killermax2013 Скачать
1 | 0
# Фильмы (Blu-ray, BD-Remux, HDDVD) [ 21.47 GB ] Шерлок Холмс: Игра теней / Sherlock Holmes: A Game of Shadows | DUB | 1080p sheker187 Скачать
1 | 0
Ultra HD (UHD: 2K, 4K, 8K) [ 41.63 GB ] Шерлок Холмс: Игра теней / Sherlock Holmes: A Game of Shadows | DUB + 2xAVO | 2160p sheker187 Скачать
1 | 0
Фильмы [HD 720p, 1080p] (Хороший звук DUB, MVO) [ 7.75 GB ] Шерлок Холмс: Игра теней / Sherlock Holmes: A Game of Shadows | DUB | 720p _denis_100 Скачать
1 | 0
Фильмы (DVD фильмы) [ 6.35 GB ] Шерлок Холмс: Игра теней / Sherlock Holmes: A Game of Shadows | | Шерлок Холмс: Игра теней / Sherlock Holmes: A Game of Shadows (Гай Ричи / Guy Ritchie voovaz Скачать
1 | 0
Фильмы с авторской озвучкой [ 2.13 GB ] Шерлок Холмс: Игра теней / Sherlock Holmes: A Game of Shadows | AVO | BDRip killermax2013 Скачать
1 | 0

28-11-2019 20:33  


Отключить вcю реклaмy на сайте, в т.ч. и в плеере онлайн просмотра!

24-04-2012 18:12 Шерлок Холмс: Игра теней Скачать торрент  

Отдельное спс за MKV



25-04-2012 03:47 Шерлок Холмс: Игра теней Скачать торрент  

в данных Аудио: не хватает кГц :ad:



05-01-2021 23:23 Шерлок Холмс: Игра теней Скачать торрент  

Торрент не качается



    Дорогой пользователь! Огромная просьба, поблагодарите релизера, оцените раздачу и оставьте свои комментарий, если Вы скачали Шерлок Холмс: Игра теней через торрент бесплатно!!
    Комментировать посты могут только пользователи прошедшие не сложную регистрацию
    Показать сообщения:    


    Шерлок Холмс: Игра теней через торрент
    Скачать бесплатно Шерлок Холмс: Игра теней
    Шерлок Холмс: Игра теней скачать торрент
    Шерлок Холмс: Игра теней смотреть онлайн
    Cкачать фильм Шерлок Холмс: Игра теней бесплатно
    Шерлок Холмс: Игра теней скачать торрент в хорошем качестве
    Шерлок Холмс: Игра теней смотреть онлайн бесплатно в хорошем качестве
    Вы не можете начинать темы
    Вы не можете отвечать на сообщения
    Вы не можете редактировать свои сообщения
    Вы не можете удалять свои сообщения
    Вы не можете голосовать в опросах
    Вы не можете прикреплять файлы к сообщениям
    Вы можете скачивать файлы