1 сезон

3 сезон

iTunes

1

Line

MVO

iTunes

13

1 сезон

RePack

30

Deluxe

pack

Лицензия

ВАЖНО

ИГРА 18+

pack

RePack

MK11

RePack

jed

RePack

fifa19

RePack

RDR2

RePack

NEED FOR SPEED™ PAYBACK

4 сезон

9 сезон

Бесстыжие 9 сезон

Все сериалы

все сериалы на PB.wtf

RePack

FAR CRY 5

Anonymous, добрый вечер, мы катастрофически не успеваем собрать деньги на оплату серверов, помогите нам пожалуйста 5,10,15р., для нас важна любая помощь . В качестве благодарности мы отключим Вам всю рекламу на сайте (укажите свой ник в строку Ваше имя)!

×
  
Magnet ссылка

Джон Леннон / Lennon Naked (Эдмунд Култхард) [2010 г., драма, биография, музыка, DVD5, Профессиональный (многоголосый) (лицензия)] pb.wtf

Джон Леннон через торрент pb.wtf

Размер: 4 GB | Добавлен: 9 лет 3 мес. назад | Торрент скачан:13 раз
Скачать  

25-04-2012 13:48 Джон Леннон Скачать торрент  

Джон Леннон / Lennon Naked

Год выпуска: 2010
Страна: Великобритания
Жанр: драма, биография, музыка
Продолжительность: 01:22:09
Перевод: Профессиональный (многоголосый) (Лицензия)
  • Режиссер: Эдмунд Култхард
  • Продюссер: Эдмунд Култхард, Katherine Lannon, Кейт Эванс
  • Сценарий: Роберт Джонс

  • Премьера мир: 12 июня 2010

В ролях: Кристофер Экклстон, Кристофер Фэйрбэнк, Аллан Кордунер, Эндрю Скотт, Наоко Мори, Майкл Колган, Craig Cheetham, Джек Морган, Клоди Блейкли, Рори Киннер

Описание: История жизни Джона Леннона на фоне распадающихся Битлз с 1967 до 1971 года.
  • Качество: DVD5
  • Формат: DVD Video
  • Видео кодек: MPEG2
  • Аудио кодек: AC3
  • Видео: MPEG 2, 720x576 (16:9), 25.000 fps, 9 000 Kbps (0.622 bit/pixel)
  • Аудио#1: AC-3, 48.0 KHz, 2 ch, 192 Kbps, CBR (Russian)
  • Аудио#2: AC-3, 48.0 KHz, 2 ch, 192 Kbps, CBR (English)


Скриншоты меню
скриншот  скриншот  скриншот  скриншот  

Скриншоты
скриншот  скриншот  скриншот  скриншот  

Код:

Title: Djon.Lennon.Tolko.luvov.2010.P.DVD.ELEKTRI4KA
Size: 4.00 Gb ( 4 197 264,00 KBytes ) - DVD-5
Enabled regions: 1, 2, 3, 4, 5, 6, 7, 8

VTS_01 :
  Play Length: 00:00:13
  Video: PAL 4:3 (720x576) VBR
  Audio:
      Russian (Dolby AC3, 6 ch)
      Russian (Dolby AC3, 6 ch)

VTS_02 :
  Play Length: 00:00:14
  Video: PAL 16:9 (720x576) VBR, Auto Letterboxed
  Audio:
      Russian (Dolby AC3, 2 ch)
      Russian (Dolby AC3, 2 ch)

VTS_03 :
  Play Length: 01:22:09
  Video: PAL 16:9 (720x576) VBR, Auto Letterboxed
  Audio:
      Russian (Dolby AC3, 2 ch)
      Russian (Dolby AC3, 2 ch)
  Subtitles:
      Russian

VTS_04 :
  Play Length: 00:01:26
  Video: PAL 16:9 (720x576) VBR, Auto Letterboxed
  Audio:
      Russian (Dolby AC3, 2 ch)
      English (Dolby AC3, 2 ch)

VTS_05 :
  Play Length: 00:02:08
  Video: PAL 4:3 (720x576) VBR
  Audio:
      Russian (Dolby AC3, 2 ch)
      Russian (Dolby AC3, 2 ch)

VTS_06 :
  Play Length: 00:01:13
  Video: PAL 16:9 (720x576) VBR, Auto Letterboxed
  Audio:
      Russian (Dolby AC3, 2 ch)
      Russian (Dolby AC3, 2 ch)

VTS_07 :
  Play Length: 00:01:17
  Video: PAL 16:9 (720x576) VBR, Auto Letterboxed
  Audio:
      Russian (Dolby AC3, 2 ch)
      Russian (Dolby AC3, 2 ch)

* Menus Information *

VIDEO_TS Menu
Video:
      PAL 4:3 (720x576) VBR
English Language Unit :
      Title Menu

VTS_01 Menu
Video:
      PAL 4:3 (720x576) VBR
English Language Unit :
      Root Menu

VTS_02 Menu
Video:
      PAL 16:9 (720x576) VBR
      Auto Letterboxed
English Language Unit :
      Root Menu

VTS_03 Menu
Video:
      PAL 4:3 (720x576) VBR
English Language Unit :
      Root Menu
      Audio Menu
      Chapter (PTT) Menu

VTS_04 Menu
Video:
      PAL 4:3 (720x576) VBR
English Language Unit :
      Root Menu
      Subpicture Menu
      Audio Menu
      Angle menu
      Chapter (PTT) Menu

VTS_05 Menu
Video:
      PAL 4:3 (720x576) VBR
English Language Unit :
      Root Menu
      Subpicture Menu
      Audio Menu
      Angle menu
      Chapter (PTT) Menu

VTS_06 Menu
Video:
      PAL 4:3 (720x576) VBR
English Language Unit :
      Root Menu
      Subpicture Menu
      Audio Menu
      Angle menu
      Chapter (PTT) Menu

VTS_07 Menu
Video:
      PAL 4:3 (720x576) VBR
English Language Unit :
      Root Menu
      Subpicture Menu
      Audio Menu
      Angle menu
      Chapter (PTT) Menu


Код:

Общее
Полное имя                               : F:\Djon.Lennon.Tolko.luvov.2010.P.DVD.ELEKTRI4KA\VIDEO_TS\VTS_03_1.VOB
Формат                                   : MPEG-PS
Размер файла                             : 1024 Мбайт
Продолжительность                        : 20 м.
Режим общего битрейта                    : Переменный
Общий поток                              : 6976 Кбит/сек

Видео
Идентификатор                            : 224 (0xE0)
Формат                                   : MPEG Video
Версия формата                           : Version 2
Профиль формата                          : Main@Main
Параметр BVOP формата                    : Да
Параметр матрицы формата                 : Выборочная
Продолжительность                        : 20 м.
Вид битрейта                             : Переменный
Битрейт                                  : 6453 Кбит/сек
Максимальный битрейт                     : 9000 Кбит/сек
Ширина                                   : 720 пикселей
Высота                                   : 576 пикселей
Соотношение сторон                       : 16:9
Частота кадров                           : 25,000 кадров/сек
Стандарт вещания                         : PAL
Цветовое пространство                    : YUV
Субдискретизация насыщенности            : 4:2:0
Битовая глубина                          : 8 бит
Тип развёртки                            : Чересстрочная
Порядок развёртки                        : Верхнее поле первое
Метод сжатия                             : С потерями
Бит/(Пиксели*Кадры)                      : 0.622
Размер потока                            : 947 Мбайт (93%)

Аудио #1
Идентификатор                            : 189 (0xBD)-128 (0x80)
Формат                                   : AC-3
Формат/Информация                        : Audio Coding 3
Расширение режима                        : CM (complete main)
Параметр Endianness формата              : Big
Режим смешивания                         : DVD-Video
Продолжительность                        : 20 м.
Вид битрейта                             : Постоянный
Битрейт                                  : 192 Кбит/сек
Каналы                                   : 2 канала
Расположение каналов                     : Front: L R
Частота                                  : 48,0 КГц
Битовая глубина                          : 16 бит
Метод сжатия                             : С потерями
Размер потока                            : 28,2 Мбайт (3%)

Аудио #2
Идентификатор                            : 189 (0xBD)-129 (0x81)
Формат                                   : AC-3
Формат/Информация                        : Audio Coding 3
Расширение режима                        : CM (complete main)
Параметр Endianness формата              : Big
Режим смешивания                         : DVD-Video
Продолжительность                        : 20 м.
Вид битрейта                             : Постоянный
Битрейт                                  : 192 Кбит/сек
Каналы                                   : 2 канала
Расположение каналов                     : Front: L R
Частота                                  : 48,0 КГц
Битовая глубина                          : 16 бит
Метод сжатия                             : С потерями
Размер потока                            : 28,2 Мбайт (3%)

Текст
Идентификатор                            : 189 (0xBD)-32 (0x20)
Формат                                   : RLE
Формат/Информация                        : Run-length encoding
Режим смешивания                         : DVD-Video
Продолжительность                        : 20 м.
Задержка видео                           : 1 с. 0 мс.

Меню

pb.wtf



Скачать Джон Леннон через торрент https://pic1.kartinco.top/images/2000/9zckmvvg9d.png Скачать фильм Джон Леннон через торрент бесплантно в хорошем качестве Описание: История жизни Джона Леннона на фоне распадающихся Битлз с 1967 до 1971 ... 5 10 1
Info! Золотая раздача, скачанное не засчитывается.
Торрент: Зарегистрирован [2012-04-25 13:48] · скачан: 13 раз
Статус: √ проверено
Размер: 4 GB
Как cкачать? Как скачать Джон Леннон через торрент | UTorrent

% Раздел Тема Автор DL S | L
Фильмы 2010 [ 1.37 GB ] Джон Леннон / Lennon Naked [2010 биография музыка DVDRip ] shuller Скачать
1 | 0

28-11-2019 20:33  

Отключить всю рекламу на сайте

    Дорогой пользователь! Огромная просьба, поблагодарите релизера, оцените раздачу и оставьте свои комментарий, если Вы скачали Джон Леннон через торрент бесплатно! Внесите свою лепту в развитие PiratBit!
    Комментировать посты могут только пользователи прошедшие не сложную регистрацию
    Показать сообщения:    

    Джон Леннон через торрент
    Скачать бесплатно Джон Леннон
    Джон Леннон скачать торрент
    Джон Леннон смотреть онлайн
    Cкачать фильм Джон Леннон бесплатно
    Джон Леннон скачать торрент в хорошем качестве
    Джон Леннон смотреть онлайн бесплатно в хорошем качестве


    Вы не можете начинать темы
    Вы не можете отвечать на сообщения
    Вы не можете редактировать свои сообщения
    Вы не можете удалять свои сообщения
    Вы не можете голосовать в опросах
    Вы не можете прикреплять файлы к сообщениям
    Вы можете скачивать файлы