2 сезон

iTunes

MVO

1

2 сезон

iTunes

iTunes

1 сезон

RePack

30

Новинка

ВАЖНО

ИГРА 18+

pack

RePack

MK11
pack

Легкие деньги

RePack

jed

RePack

fifa19

RePack

RDR2

RePack

NEED FOR SPEED™ PAYBACK

4 сезон

9 сезон

Бесстыжие 9 сезон

Все сериалы

все сериалы на PB.wtf

RePack

FAR CRY 5

Anonymous, добрый вечер, мы не успеваем собрать деньги на оплату серверов за декабрь и январь, помогите нам пожалуйста в это трудное время. В качестве благодарности мы отключим Вам всю рекламу на сайте (укажите свой ник в строку Ваше имя)!

×
  
Magnet ссылка

Другой мир: Пробуждение 3D / Underworld: Awakening 3D (Монс Морлинд, Бьёрн) [2011 г., Боевик, Фэнтези, Ужасы, BDRip, 1080p] Anaglyph (RAV) pb.wtf

Другой мир: Пробуждение 3D через торрент pb.wtf

Размер: 4.5 GB | Добавлен: 8 лет 8 мес. назад | Торрент скачан:421 раз
Скачать  

26-04-2012 14:41 Другой мир: Пробуждение 3D Скачать торрент  

Другой мир: Пробуждение 3D / Underworld: Awakening 3D

Год выпуска: 2011
Страна: США
Жанр: Боевик, Фэнтези, Ужасы
Продолжительность: 01:28:34
Перевод: Профессиональный (полное дублирование)

Режиссер: Монс Морлинд, Бьёрн

В ролях: Селена - Кейт Бекинсейл (Светлана Кузнецова)
Доктор Джейкоб Лэйн - Стивен Ри (Сергей Куприянов)
Детектив Себастиан - Майкл Или
Дэвид - Тео Джеймс
Ева - Индия Айли
Томас - Чарльз Дэнс (Виктор Костецкий)
Лида - Сандрин Холт
Куинт - Кристен Холден-Рид (Александр Трофимов)
Офицер Колб - Джейкоб Блэр (Олег Тилькин)

Описание: Через 12 лет состояния, близкому к коматозному, Селин узнает о существовании родной дочери Евы — гибрида вампира и ликана. И Селин необходимо помешать БиоКом создать суперликанов, которые убьют их всех.

Доп. информация:
Внимание! Для просмотра нужны анаглифные очки красно-синезеленые
Формат 3D: Анаглиф red-cyan (RAV)
Порядок ракурсов: левый ракурс первый

Релиз благодаря:boss-master

Качество: BDRip
Формат: MKV
Видео кодек: X.264
Аудио кодек: AC3
Видео: V_MPEG4/ISO/AVC, 1920х800, 5 844 Kbps, 23.976 fps, 0.159 bit/pixel
Аудио 1: Русский / Дублированный, 6 channels, 48.0 KHz, 640 Kbps
Аудио 2: English / Original, 6 channels, 48.0 KHz, 640 Kbps
General
Format : Matroska
Format version : Version 2
File size : 4.50 GiB
Duration : 1h 28mn
Overall bit rate : 7 269 Kbps
Encoded date : UTC 2012-04-20 11:46:46
Writing application : mkvmerge v4.4.0 ('Die Wiederkehr') сборка от Oct 31 2010 21:52:48
Writing library : libebml v1.0.0 + libmatroska v1.0.0

Video
ID : 1
Format : AVC
Format/Info : Advanced Video Codec
Format profile : High@L4.0
Format settings, CABAC : Yes
Format settings, ReFrames : 4 frames
Codec ID : V_MPEG4/ISO/AVC
Duration : 1h 28mn
Bit rate : 5 844 Kbps
Width : 1 920 pixels
Height : 800 pixels
Display aspect ratio : 2.40:1
Frame rate : 23.976 fps
Color space : YUV
Chroma subsampling : 4:2:0
Bit depth : 8 bits
Scan type : Progressive
Bits/(Pixel*Frame) : 0.159
Stream size : 3.62 GiB (80%)
Title : RAV-anaglyph from Boss-Master
Writing library : x264 core 115 r1995 c1e60b9
Encoding settings : cabac=1 / ref=4 / deblock=1:-2:-2 / analyse=0x3:0x113 / me=umh / subme=9 / psy=1 / psy_rd=1.00:0.15 / mixed_ref=1 / me_range=16 / chroma_me=1 / trellis=2 / 8x8dct=1 / cqm=0 / deadzone=21,11 / fast_pskip=1 / chroma_qp_offset=-3 / threads=6 / sliced_threads=0 / nr=0 / decimate=1 / interlaced=0 / bluray_compat=0 / constrained_intra=0 / bframes=6 / b_pyramid=0 / b_adapt=2 / b_bias=0 / direct=3 / weightb=1 / open_gop=0 / weightp=2 / keyint=250 / keyint_min=23 / scenecut=40 / intra_refresh=0 / rc_lookahead=40 / rc=crf / mbtree=1 / crf=18.0 / qcomp=0.60 / qpmin=10 / qpmax=69 / qpstep=4 / ip_ratio=1.40 / aq=1:1.00
Language : Russian
Default : Yes
Forced : No

Audio #1
ID : 2
Format : AC-3
Format/Info : Audio Coding 3
Mode extension : CM (complete main)
Codec ID : A_AC3
Duration : 1h 28mn
Bit rate mode : Constant
Bit rate : 640 Kbps
Channel(s) : 6 channels
Channel positions : Front: L C R, Side: L R, LFE
Sampling rate : 48.0 KHz
Bit depth : 16 bits
Compression mode : Lossy
Stream size : 405 MiB (9%)
Language : Russian
Default : Yes
Forced : No

Audio #2
ID : 3
Format : AC-3
Format/Info : Audio Coding 3
Mode extension : CM (complete main)
Codec ID : A_AC3
Duration : 1h 28mn
Bit rate mode : Constant
Bit rate : 640 Kbps
Channel(s) : 6 channels
Channel positions : Front: L C R, Side: L R, LFE
Sampling rate : 48.0 KHz
Bit depth : 16 bits
Compression mode : Lossy
Stream size : 405 MiB (9%)
Language : English
Default : No
Forced : No



pb.wtf



Скачать Другой мир: Пробуждение 3D через торрент http://vangog.bks-tv.ru/i/8/0/4f3a5eae5be08.jpg Скачать фильм Другой мир: Пробуждение 3D через торрент бесплантно в хорошем качестве Описание: Через 12 лет состояния, близкому к коматозному, Селин узнает о существовании родной дочери Евы — гибрида вампира и ликана. И ... 10 10 6
Info! Золотая раздача, скачанное не засчитывается.
Торрент: Зарегистрирован [2012-04-26 14:41] · скачан: 421 раз
Статус: √ проверено
Размер: 4.5 GB
Как cкачать? Как скачать Другой мир: Пробуждение 3D через торрент | UTorrent

28-11-2019 20:33  

Отключить всю рекламу на сайте

18-02-2014 14:36 Другой мир: Пробуждение 3D Скачать торрент  

Огромное Спасибо за раздачу!!!pb.wtf



    Дорогой пользователь! Огромная просьба, поблагодарите релизера, оцените раздачу и оставьте свои комментарий, если Вы скачали Другой мир: Пробуждение 3D через торрент бесплатно! Внесите свою лепту в развитие PiratBit!
    Комментировать посты могут только пользователи прошедшие не сложную регистрацию
    Показать сообщения:    

    Другой мир: Пробуждение 3D через торрент
    Скачать бесплатно Другой мир: Пробуждение 3D
    Другой мир: Пробуждение 3D скачать торрент
    Другой мир: Пробуждение 3D смотреть онлайн
    Cкачать фильм Другой мир: Пробуждение 3D бесплатно
    Другой мир: Пробуждение 3D скачать торрент в хорошем качестве
    Другой мир: Пробуждение 3D смотреть онлайн бесплатно в хорошем качестве


    Вы не можете начинать темы
    Вы не можете отвечать на сообщения
    Вы не можете редактировать свои сообщения
    Вы не можете удалять свои сообщения
    Вы не можете голосовать в опросах
    Вы не можете прикреплять файлы к сообщениям
    Вы можете скачивать файлы