Мега распродажа FORZA HORIZON 4 ULTIMATE+ВСЕ DLC+ОНЛАЙН всего за 499р. 349 руб. (супер цена). Внимание количество ограничено!!!

iTunes

1+1

iTunes

мы

iTunes

1

1 сезон

Чернобыль

1 сезон

Ральф против интернета

Лицензия

ПШазам

8 сезон

Игра престолов

Лицензия

30
pack

ВАЖНО

!!Акция!!

Alien_RageХит недели

RePack

Resident Evil 21

ИГРА 18+

pack

RePack

Metro:Exodus

!!Акция!!

Alien_Rage

RePack

fifa19

RePack

Assassins Creed: Odyssey

RePack

NEED FOR SPEED™ PAYBACK

3 сезон

9 сезон

Бесстыжие 9 сезон

Все сериалы

все сериалы на PB.wtf

RePack

FAR CRY 5
Ребята, катастрофически не хватает 2730р. для оплаты серверов за ИЮНЬ (всвязи с блокировками трафик упал в 3 раза), 1-2р., выручайте.
  

Схватка / Heat (Майкл Манн) [1995 г., боевик, триллер, драма, криминал, HDRip, Профессиональный (многоголосый)] pb.wtf

Схватка через торрент pb.wtf

Размер: 2.19 GB | Добавлен: 7 лет 2 мес. назад | Торрент скачан:129 раз
Скачать  

26-04-2012 18:10 Схватка Скачать торрент  

Схватка / Heat

Год выпуска: 1995
Страна: США
Жанр: боевик, триллер, драма, криминал
Продолжительность: 02:50:27
Перевод: Профессиональный (многоголосый)

Режиссер: Майкл Манн
Продюссер: Арт Линсон, Майкл Манн, Питер Жан Брюгге
Сценарий: Майкл Манн

Бюджет: $60 000 000
Премьера в мире: 02:50:27

R-лицам до 17 лет обязательно присутствие взрослого
Мировой рейтинг IMDB 8.30 (209 771)
Топ250: 140

В ролях: Аль Пачино, Роберт Де Ниро, Вэл Килмер, Том Сайзмор, Эми Бреннеман, Джон Войт, Дайан Венора, Эшли Джадд, Майкелти Уильямсон, Уэс Стьюди

Описание: Нил МакКоли — преступник. Один из лучших, если можно так сказать о преступнике, в Лос-Анджелесе, а быть может, и во всей Америке. И работать с ним вместе почитают за честь супер-профессионалы криминального мира. Но против него выступает Винсент Ханна. Детектив. Один из лучших в Лос-Анджелесе, а быть может, и во всей Америке. У Винсента и Нила очень много общего. Вероятно, общего у них даже больше, чем отличий. Однако они все же стоят по разные стороны закона. Две сильнейшие команды сошлись друг против друга. Только речь идет не о спортивном состязании, а о схватке не на жизнь, а на смерть...

Качество: HDRip
Формат: AVI
Видео кодек: XviD
Аудио кодек: AC3
Видео: 1 443 Kbps, 720 pixels х 304 pixels, 23.976 fps, Bits/Pixel : 0.275
Аудио#1: 384 Kbps, 6 channels, 48.0 KHz
Format : AVI
Format/Info : Audio Video Interleave
Format profile : OpenDML
File size : 2.19 GiB
Duration : 2h 50mn
Overall bit rate : 1 839 Kbps
Writing application : VirtualDubMod 1.5.10.3 | www.virtualdub-fr.org || (build 2550/release)
Writing library : VirtualDubMod build 2550/release

Video
ID : 0
Format : MPEG-4 Visual
Format profile : Advanced Simple@L5
Format settings, BVOP : 1
Format settings, QPel : No
Format settings, GMC : No warppoints
Format settings, Matrix : Default (MPEG)
Codec ID : XVID
Codec ID/Hint : XviD
Duration : 2h 50mn
Bit rate : 1 443 Kbps
Width : 720 pixels
Height : 304 pixels
Display aspect ratio : 2.35:1
Frame rate : 23.976 fps
Color space : YUV
Chroma subsampling : 4:2:0
Bit depth : 8 bits
Scan type : Progressive
Compression mode : Lossy
Bits/(Pixel*Frame) : 0.275
Stream size : 1.72 GiB (78%)
Writing library : XviD 1.2.1 (UTC 2008-12-04)

Audio
ID : 1
Format : AC-3
Format/Info : Audio Coding 3
Mode extension : CM (complete main)
Codec ID : 2000
Duration : 2h 50mn
Bit rate mode : Constant
Bit rate : 384 Kbps
Channel(s) : 6 channels
Channel positions : Front: L C R, Side: L R, LFE
Sampling rate : 48.0 KHz
Bit depth : 16 bits
Compression mode : Lossy
Stream size : 468 MiB (21%)
Alignment : Split accross interleaves
Interleave, duration : 42 ms (1.00 video frame)
Interleave, preload duration : 500 ms

pb.wtf



Скачать Схватка через торрент http://pic.kartinco.top/images/2000/rorcog5u1r.jpg Скачать фильм Схватка через торрент бесплантно в хорошем качестве Описание: Нил МакКоли — преступник. Один из лучших, если можно так сказать о преступнике, в Лос-Анджелесе, а быть может, и во всей Америке. ... 8.9 10 8
Info! Золотая раздача, скачанное не засчитывается.
Торрент: Зарегистрирован [2012-04-26 18:10] · скачан: 129 раз
Статус: √ проверено
Размер: 2.19 GB
Как cкачать? Как скачать Схватка через торрент | qTorrent

% Раздел Тема Автор DL S | L
Ultra HD (UHD: 2K, 4K, 8K) — видео сверхвысокой чёткости [ 44.38 GB ] Схватка / Heat [1995 UHD WEB-DL 2160p] 4xMVO+DVO+5xAVO+3xMVO bober100 Скачать
2 | 0
Фильмы [HD 720p, 1080p] (Хороший звук DUB, MVO) [ 16.01 GB ] Схватка / Heat [1995 BDRip 1080p] 4xMVO 4xAVO Леонид Ильич Скачать
3 | 0
Фильмы с авторской озвучкой [ 3.71 GB ] Схватка / Heat [4K Remastered] [1995 BDRip 1080p-HEVC 10bit AVO ] ADVOKAT69 Скачать
2 | 0
Фильмы (Blu-ray, BD-Remux, HDDVD) [ 43.7 GB ] Схватка / Heat [ 1995 BDRemux ] MVO AVO читерас Скачать
1 | 0
Фильмы [HD 720p, 1080p] (Хороший звук DUB, MVO) [ 18.76 GB ] Схватка / Heat [1995 BDRip 1080p от еnvy / NNNB] UK Remastered | MVO DVO AVO еnvy Скачать
3 | 0
Фильмы с авторской озвучкой [ 1.45 GB ] Схватка / Heat [1995 BDRip] [Remastered] [AVO] killermax2013 Скачать
3 | 0
Фильмы (HD 720p, 1080p) (48-60 fps) [ 19.2 GB ] Схватка / Heat [1995 BDRip 1080p / 60 FPS] 3xMVO + 2xAVO от R.G. HD-Films -Lexx- Скачать
1 | 0


Последний раз редактировалось: кэп (2012-04-26 19:58), всего редактировалось 2 раз(а)


>> Регистрируемся здесь <<






Отзывы и комментарии о схеме читаем и пишем здесь: ---> Отзывы и комментарии о схеме

Новые благодарочки в телеграм довольных пользователей:
скриншот   скриншот   скриншот   скриншот   скриншот

26-04-2012 18:54 Схватка Скачать торрент  

УВАЖАЕМЫЙ А КТО ПАЧИНО ДУБЛИРУЕТ? ЕРМИЛОВ?pb.wtf



26-04-2012 20:12 Схватка Скачать торрент  

Фильм супер, один из лучших боевиков середины 90, игра актёров неподрожаема! Это один из лучших фильмов как Аль Пачино, так и Де Ниро, а Майкл Манн сумел снять один из самых напряжённых триллеров в истории кино, удовольствие получил..отличнейший фильм!!pb.wtf



25-06-2015 17:50 Схватка Скачать торрент  

Крутой фильмец!!! :shoot2:pb.wtf



    Дорогой пользователь! Огромная просьба, поблагодарите релизера, оцените раздачу и оставьте свои комментарий, если Вы скачали Схватка через торрент бесплатно! Внесите свою лепту в развитие PiratBit!
    Комментировать посты могут только пользователи прошедшие не сложную регистрацию
    Показать сообщения:    

    Схватка через торрент
    Скачать бесплатно Схватка
    Схватка скачать торрент
    Схватка смотреть онлайн
    Cкачать фильм Схватка бесплатно
    Схватка скачать торрент в хорошем качестве
    Схватка смотреть онлайн бесплатно в хорошем качестве


    Вы не можете начинать темы
    Вы не можете отвечать на сообщения
    Вы не можете редактировать свои сообщения
    Вы не можете удалять свои сообщения
    Вы не можете голосовать в опросах
    Вы не можете прикреплять файлы к сообщениям
    Вы можете скачивать файлы