Ссылка на приватное зеркало нашего сайта всего за 1$. Внимание количество ограничено!!!

2 сезон

iTunes

1 сезон

1

iTunes

iTunes

iTunes

1 сезон

RePack

30

ИГРА 18+

pack

ВАЖНО

!!Акция!!

Alien_RageХит недели

RePack

MK11
pack

Забери бонус

RePack

jed

!!Акция!!

Alien_Rage

RePack

fifa19

RePack

Assassins Creed: Odyssey

RePack

NEED FOR SPEED™ PAYBACK

4 сезон

9 сезон

Бесстыжие 9 сезон

Все сериалы

все сериалы на PB.wtf

RePack

FAR CRY 5
  

Миссия невыполнима: Протокол Фантом / Mission: Impossible - Ghost Protocol (Брэд Бёрд) [2011 г., боевик, триллер, приключения, BDRip (1080p), DUB + Оригинал+Ukrainian+субтитры] pb.wtf

Миссия невыполнима: Протокол Фантом через торрент pb.wtf

Размер: 17.04 GB | Добавлен: 8 лет 6 мес. назад | Торрент скачан:49 раз
Скачать  

26-04-2012 18:13 Миссия невыполнима: Протокол Фантом Скачать торрент  

«Плана нет. Помощи нет. Выбора нет»Миссия невыполнима: Протокол Фантом / Mission: Impossible - Ghost Protocol Год выпуска: 2011
Страна: США / Paramount Pictures
Жанр: боевик, триллер, приключения
Продолжительность: 02:12:59
Перевод: Дубляж + Оригинал


Режиссер: Брэд Бёрд

В ролях: Том Круз, Пола Пэттон, Саймон Пегг, Джереми Реннер, Микаэл Нюквист, Владимир Машков, Самули Эдельманн, Иван Шведов, Анил Капур, Леа Сейду

Описание: Специальный агент отряда «Миссия невыполнима» Итан Хант и его коллеги несправедливо обвинены в причастности к взрыву Кремля. Президент инициирует «Протокол Фантом», в результате которого спецподразделение ликвидировано, и Итан остается без какой-либо поддержки. Он намерен очистить свое доброе имя и предотвратить новую атаку, но делать это ему придется вместе с командой коллег, истинных мотивов которых он до конца не знает.


Качество: BDRip (1080p)
Формат: MKV
Видео кодек: H.26x
Аудио кодек: AC3
Видео: AVC, 1920x800 (2.40:1), 23.976 fps, 16.3 Mbps (0.441 bit/pixel)
Аудио#1: AC-3, 48.0 KHz, 6 ch, 640 Kbps, CBR (Russian)
Аудио#2: AC-3, 48.0 KHz, 6 ch, 448 Kbps, CBR (Ukrainian)
Аудио#3: AC-3, 48.0 KHz, 6 ch, 640 Kbps, CBR (English)
Субтитры: Russian, Ukrainian, English, English (forced), English (SDH)

General
Unique ID : 178995784332475323994929930767093252141 (0x86A9558759229288B032079B7F74C02D)
Complete name : D:Missija.nevypolnima.Protokol.Fantom.2011.D.BDRip.1080p.[uniongang.tv].mkv
Format : Matroska
File size : 17.0 GiB
Duration : 2h 12mn
Overall bit rate : 18.4 Mbps
Movie name : Missija.nevypolnima.Protokol.Fantom.2011.D.BDRip.1080p.[uniongang.tv] by sstonecold
Encoded date : UTC 2012-04-26 11:42:13
Writing application : mkvmerge v5.2.0 ('I can't explain') built on Dec 18 2011 18:12:03
Writing library : libebml v1.2.3 + libmatroska v1.3.0

Video
ID : 1
Format : AVC
Format/Info : Advanced Video Codec
Format profile : High@L4.1
Format settings, CABAC : Yes
Format settings, ReFrames : 5 frames
Format settings, GOP : M=8, N=24
Codec ID : V_MPEG4/ISO/AVC
Duration : 2h 12mn
Bit rate : 16.3 Mbps
Width : 1 920 pixels
Height : 800 pixels
Display aspect ratio : 2.40:1
Frame rate : 23.976 fps
Color space : YUV
Chroma subsampling : 4:2:0
Bit depth : 8 bits
Scan type : Progressive
Bits/(Pixel*Frame) : 0.441
Stream size : 15.1 GiB (89%)
Title : Missija.nevypolnima.Protokol.Fantom.2011.D.BDRip.1080p.[uniongang.tv] by sstonecold
Writing library : x264 core 122 r2184 5c85e0a
Encoding settings : cabac=1 / ref=5 / deblock=1:-3:-3 / analyse=0x3:0x113 / me=tesa / subme=11 / psy=1 / psy_rd=1.00:0.00 / mixed_ref=1 / me_range=16 / chroma_me=1 / trellis=2 / 8x8dct=1 / cqm=0 / deadzone=21,11 / fast_pskip=0 / chroma_qp_offset=-2 / threads=6 / sliced_threads=0 / nr=0 / decimate=0 / interlaced=0 / bluray_compat=0 / constrained_intra=0 / bframes=7 / b_pyramid=2 / b_adapt=2 / b_bias=0 / direct=3 / weightb=1 / open_gop=0 / weightp=2 / keyint=250 / keyint_min=23 / scenecut=40 / intra_refresh=0 / rc=crf / mbtree=0 / crf=17.5 / qcomp=0.67 / qpmin=0 / qpmax=69 / qpstep=4 / ip_ratio=1.40 / pb_ratio=1.20 / aq=1:0.85
Language : English

Audio #1
ID : 2
Format : AC-3
Format/Info : Audio Coding 3
Mode extension : CM (complete main)
Codec ID : A_AC3
Duration : 2h 12mn
Bit rate mode : Constant
Bit rate : 640 Kbps
Channel(s) : 6 channels
Channel positions : Front: L C R, Side: L R, LFE
Sampling rate : 48.0 KHz
Bit depth : 16 bits
Compression mode : Lossy
Stream size : 609 MiB (3%)
Language : Russian

Audio #2
ID : 3
Format : AC-3
Format/Info : Audio Coding 3
Mode extension : CM (complete main)
Codec ID : A_AC3
Duration : 2h 12mn
Bit rate mode : Constant
Bit rate : 448 Kbps
Channel(s) : 6 channels
Channel positions : Front: L C R, Side: L R, LFE
Sampling rate : 48.0 KHz
Bit depth : 16 bits
Compression mode : Lossy
Stream size : 426 MiB (2%)
Language : Ukrainian

Audio #3
ID : 4
Format : AC-3
Format/Info : Audio Coding 3
Mode extension : CM (complete main)
Codec ID : A_AC3
Duration : 2h 12mn
Bit rate mode : Constant
Bit rate : 640 Kbps
Channel(s) : 6 channels
Channel positions : Front: L C R, Side: L R, LFE
Sampling rate : 48.0 KHz
Bit depth : 16 bits
Compression mode : Lossy
Stream size : 609 MiB (3%)
Language : English

Text #1
ID : 5
Format : UTF-8
Codec ID : S_TEXT/UTF8
Codec ID/Info : UTF-8 Plain Text
Language : Russian

Text #2
ID : 6
Format : UTF-8
Codec ID : S_TEXT/UTF8
Codec ID/Info : UTF-8 Plain Text
Language : Ukrainian

Text #3
ID : 7
Format : UTF-8
Codec ID : S_TEXT/UTF8
Codec ID/Info : UTF-8 Plain Text
Language : English

Text #4
ID : 8
Format : UTF-8
Codec ID : S_TEXT/UTF8
Codec ID/Info : UTF-8 Plain Text
Title : SDH
Language : English

Text #5
ID : 9
Format : UTF-8
Codec ID : S_TEXT/UTF8
Codec ID/Info : UTF-8 Plain Text
Title : Forced
Language : English

Menu
00:00:00.000 : :00:00:00.000
00:04:41.907 : :00:04:41.907
00:11:28.897 : :00:11:28.897
00:20:01.951 : :00:20:01.951
00:27:35.320 : :00:27:35.320
00:33:28.173 : :00:33:28.173
00:38:18.087 : :00:38:18.087
00:44:46.100 : :00:44:46.100
00:51:37.219 : :00:51:37.219
00:56:05.153 : :00:56:05.153
01:02:50.183 : :01:02:50.183
01:09:17.820 : :01:09:17.820
01:16:32.379 : :01:16:32.379
01:22:18.517 : :01:22:18.517
01:31:17.055 : :01:31:17.055
01:35:57.377 : :01:35:57.377
01:42:49.914 : :01:42:49.914
01:51:01.780 : :01:51:01.780
01:58:26.391 : :01:58:26.391
02:05:58.843 : :02:05:58.843

pb.wtf



Скачать Миссия невыполнима: Протокол Фантом через торрент http://linkme.ufanet.ru/images/9914cbd20ac0a27b3a72171f4e578d95.png Скачать фильм Миссия невыполнима: Протокол Фантом через торрент бесплантно в хорошем качестве Описание: Специальный агент отряда «Миссия невыполнима» Итан Хант и его коллеги несправедливо обвинены в причастности к взрыву Кремля. ... 10 10 1
Info! Золотая раздача, скачанное не засчитывается.
Торрент: Зарегистрирован [2012-04-26 18:13] · скачан: 49 раз
Статус: √ проверено
Размер: 17.04 GB
Как cкачать? Как скачать Миссия невыполнима: Протокол Фантом через торрент | qTorrent



Последний раз редактировалось: ~Relizer~ (2012-04-26 18:30), всего редактировалось 1 раз

28-11-2019 20:33  

Отключить всю рекламу на сайте

26-04-2012 18:18 Миссия невыполнима: Протокол Фантом Скачать торрент  

Отличия от предыдущего релиза:
лучший видеоряд
русская аудиодорожка с Blu-ray ССЕ
субтитры с Blu-ray ССЕ
добавлена украинская аудиодорожка (R5)
pb.wtf



26-04-2012 18:26 Миссия невыполнима: Протокол Фантом Скачать торрент  

Resident1948 писал(а):

Скриншоты поправь если не знаешь как я подскажу

спасибо поправлю)pb.wtf



26-04-2012 18:31 Миссия невыполнима: Протокол Фантом Скачать торрент  

Все поправлено)pb.wtf



    Дорогой пользователь! Огромная просьба, поблагодарите релизера, оцените раздачу и оставьте свои комментарий, если Вы скачали Миссия невыполнима: Протокол Фантом через торрент бесплатно! Внесите свою лепту в развитие PiratBit!
    Комментировать посты могут только пользователи прошедшие не сложную регистрацию
    Показать сообщения:    

    Миссия невыполнима: Протокол Фантом через торрент
    Скачать бесплатно Миссия невыполнима: Протокол Фантом
    Миссия невыполнима: Протокол Фантом скачать торрент
    Миссия невыполнима: Протокол Фантом смотреть онлайн
    Cкачать фильм Миссия невыполнима: Протокол Фантом бесплатно
    Миссия невыполнима: Протокол Фантом скачать торрент в хорошем качестве
    Миссия невыполнима: Протокол Фантом смотреть онлайн бесплатно в хорошем качестве


    Вы не можете начинать темы
    Вы не можете отвечать на сообщения
    Вы не можете редактировать свои сообщения
    Вы не можете удалять свои сообщения
    Вы не можете голосовать в опросах
    Вы не можете прикреплять файлы к сообщениям
    Вы можете скачивать файлы