Всегда рабочее зеркало без VPN и Proxy просто перед .vidak.icu напиши любое слово или цифру, Пример http://t4kf.vidak.icu

MVO

Лицензия

1 сезон

1

1 сезон

iTunes

1 сезон

13

1 сезон

Deluxe

pack

Рекомендуем

Пиратка

30

ВАЖНО

RePack

MK11

RePack

jed

RePack

fifa19

RePack

RDR2

RePack

NEED FOR SPEED™ PAYBACK

Кинопоиск HD

6 сезон

 Острые козырьки 6 сезон

Все сериалы

все сериалы на PB.wtf

RePack

FAR CRY 5
  
Magnet ссылка

Милый друг / Bel Ami (Деклан Доннеллан, Ник Ормерод) [2012 г., драма, BDRip (720p), DUB (лицензия)] pb.wtf

Милый друг через торрент pb.wtf

Размер: 4.14 GB | Добавлен: 10 лет назад | Торрент скачан:118 раз
Смотреть онлайн Милый друг | Скачать    Ребята, помогите собрать деньги на оплату серверов!!!

27-04-2012 13:27 Милый друг Скачать торрент  

Милый друг / Bel Ami
«Соблазн. Обольщение. Страсть.»
Год выпуска: 2012
Страна: Франция, Великобритания, Италия / 19 Entertainment
Жанр: драма
Продолжительность: 01:42:19
Перевод: Дубляж (Лицензия)

Режиссер: Деклан Доннеллан, Ник Ормерод

В ролях: Роберт Паттинсон, Кристина Риччи, Ума Турман, Кристин Скотт Томас, Наталия Тена, Колм Мини, Холли Грэйнджер, Филип Гленистер, Пип Торренс, Джеймс Лэнс

Описание: Жоржа влекут деньги, секс и Влacть. Обольстительная внешность и железные нервы карточного игрока, обворожительные манеры и когти хищника — и Париж, город порока и страсти, лежит у его ног…

Качество: BDRip (720p)
Формат: MKV
Видео кодек: Другой MPEG4
Аудио кодек: DTS
Видео: AVC, 1280x536 (2.35:1), 24.000 fps, 4 278 Kbps (0.260 bit/pixel)
Аудио#1: DTS, 48.0 KHz, 6 ch, 1 510 Kbps, CBR (Russian)

General
Unique ID : 193637989035834195343917420142198008564 (0x91AD51F50E45C956A58638958A5C2AF4)
Complete name : D:\Miliy.drug.2012.BDRip.720p,x264.IRONCLUB.mkv
Format : Matroska
File size : 4.14 GiB
Duration : 1h 42mn
Overall bit rate : 5 789 Kbps
Movie name : Rip by Kim
Encoded date : UTC 2012-04-26 23:43:24
Writing application : mkvmerge v5.3.0 ('I could have danced') built on Feb 9 2012 10:38:07
Writing library : libebml v1.2.3 + libmatroska v1.3.0

Video
ID : 1
Format : AVC
Format/Info : Advanced Video Codec
Format profile : High@L4.1
Format settings, CABAC : Yes
Format settings, ReFrames : 12 frames
Format settings, GOP : M=1, N=34
Codec ID : V_MPEG4/ISO/AVC
Duration : 1h 42mn
Bit rate : 4 278 Kbps
Width : 1 280 pixels
Height : 536 pixels
Display aspect ratio : 2.35:1
Frame rate : 24.000 fps
Color space : YUV
Chroma subsampling : 4:2:0
Bit depth : 8 bits
Scan type : Progressive
Bits/(Pixel*Frame) : 0.260
Stream size : 2.98 GiB (72%)
Title : IRONCLUB
Writing library : x264 core 120 r2164 da19765
Encoding settings : cabac=1 / ref=12 / deblock=1:-3:-3 / analyse=0x3:0x133 / me=umh / subme=11 / psy=1 / psy_rd=0.95:0.15 / mixed_ref=1 / me_range=32 / chroma_me=1 / trellis=2 / 8x8dct=1 / cqm=0 / deadzone=21,11 / fast_pskip=0 / chroma_qp_offset=-3 / threads=12 / sliced_threads=0 / nr=0 / decimate=1 / interlaced=0 / bluray_compat=0 / constrained_intra=0 / bframes=7 / b_pyramid=2 / b_adapt=2 / b_bias=0 / direct=3 / weightb=1 / open_gop=0 / weightp=2 / keyint=240 / keyint_min=22 / scenecut=40 / intra_refresh=0 / rc_lookahead=40 / rc=2pass / mbtree=1 / bitrate=4278 / ratetol=1.0 / qcomp=0.60 / qpmin=0 / qpmax=69 / qpstep=4 / cplxblur=20.0 / qblur=0.5 / vbv_maxrate=50000 / vbv_bufsize=62500 / nal_hrd=none / ip_ratio=1.40 / aq=2:1.00
Language : English

Audio
ID : 2
Format : DTS
Format/Info : Digital Theater Systems
Codec ID : A_DTS
Duration : 1h 42mn
Bit rate mode : Constant
Bit rate : 1 510 Kbps
Channel(s) : 6 channels
Channel positions : Front: L C R, Side: L R, LFE
Sampling rate : 48.0 KHz
Bit depth : 24 bits
Compression mode : Lossy
Stream size : 1.08 GiB (26%)
Language : Russian

Menu
00:00:00.000 : en:00:00:00.000
00:06:39.750 : en:00:06:39.750
00:11:51.250 : en:00:11:51.250
00:19:38.500 : en:00:19:38.500
00:25:03.042 : en:00:25:03.042
00:33:08.750 : en:00:33:08.750
00:36:40.833 : en:00:36:40.833
00:44:03.083 : en:00:44:03.083
00:55:29.583 : en:00:55:29.583
01:02:14.167 : en:01:02:14.167
01:08:27.833 : en:01:08:27.833
01:14:36.750 : en:01:14:36.750
01:22:15.250 : en:01:22:15.250
01:27:59.500 : en:01:27:59.500
01:34:19.833 : en:01:34:19.833

pb.wtf



Скачать Милый друг через торрент http://linkme.ufanet.ru/images/ae99e5f1355d599e2a92ebe3e63229fd.png Скачать, смотреть онлайн Милый друг бесплантно в хорошем качестве Описание: Жоржа влекут деньги, секс и Влacть. Обольстительная внешность и железные нервы карточного игрока, обворожительные манеры и когти ... 5 10 5
Info! Золотая раздача, скачанное не засчитывается.
Торрент: Зарегистрирован [2012-04-27 13:27] · скачан: 118 раз
Статус: √ проверено
Размер: 4.14 GB
Как cкачать? Как скачать Милый друг через торрент | UTorrent

% Раздел Тема Автор DL S | L
Фильмы 2012 [ 1.46 GB ] Милый друг / Bel Ami [2012 DVDRip DUB ] кэп Скачать
1 | 0
Классические порно фильмы [ 1.56 GB ] Милый друг / Bel Ami [1975 Feature Classic Straight Retro. DVDRip Оригинал] Magnat Скачать
1 | 0
Фильмы 2012 [ 742 MB ] Милый друг / Bel Ami [2012 HDRip DUB ] MIXX_ON Скачать
1 | 0
Фильмы (DVD фильмы) [ 4.35 GB ] Милый друг / Bel Ami [2012 DVD5] R5 voovaz Скачать
1 | 0


Последний раз редактировалось: ~Relizer~ (2012-04-27 13:38), всего редактировалось 1 раз

28-11-2019 20:33  

Отключить всю рекламу на сайте

07-05-2012 13:49 Милый друг Скачать торрент  

ни че так фильм :Dpb.wtf



    Дорогой пользователь! Огромная просьба, поблагодарите релизера, оцените раздачу и оставьте свои комментарий, если Вы скачали Милый друг через торрент бесплатно!
    Комментировать посты могут только пользователи прошедшие не сложную регистрацию
    Показать сообщения:    

    Милый друг через торрент
    Скачать бесплатно Милый друг
    Милый друг скачать торрент
    Милый друг смотреть онлайн
    Cкачать фильм Милый друг бесплатно
    Милый друг скачать торрент в хорошем качестве
    Милый друг смотреть онлайн бесплатно в хорошем качестве


    Вы не можете начинать темы
    Вы не можете отвечать на сообщения
    Вы не можете редактировать свои сообщения
    Вы не можете удалять свои сообщения
    Вы не можете голосовать в опросах
    Вы не можете прикреплять файлы к сообщениям
    Вы можете скачивать файлы