Доктор Стрэндж

Лицензия

Добыча

Дубляж

Уэнсдэй

1 сезон

Тор

Дубляж

В эфире

Дубляж

Там, где раки поют

MVO

Властелин колец

1 сезон

Deluxe

pack

Рекомендуем

30

Пиратка

ВАЖНО

ВАЖНО

Ghostwire

Пиратка

jed

RePack

nioh2

RePack

RDR2

RePack

NEED FOR SPEED™ PAYBACK

RePack

скачать торрент

Кинопоиск HD

Острые козырьки 6 сезон

6 сезон

FAR CRY 6

RePack

скачать торрент

Лицензия

скачать торрент

MVO

1

1 сезон

скачать торрент

1 сезон

скачать торрент

Лицензия

  

Старая добрая оргия (Алекс Грегори / Alex Gregori, Питер Хайк / Piter Hike) [2011, США, Комедия, BDRip 720p]

Старая добрая оргия через торрент pb.wtf

Размер: 6.13 GB | Добавлен: 10 лет назад | Торрент скачан:81 раз
Смотреть онлайн | Скачать   

29-01-2012 12:24 Старая добрая оргия Скачать торрент  

Старая добрая оргия | A Good Old Fashioned Orgy
«Старые друзья в новых позициях»
Год выпуска : 2011
Страна: США
Жанр : Комедия
Продолжительность : 01:34:40
Перевод : Дублированный+Оригинальная
Cубтитры : Русские

Режиссер : Алекс Грегори / Alex Gregori, Питер Хайк / Piter Hike

В ролях : Джейсон Судейкис (Eric), Лесли Бибб (Kelly), Лэйк Белл (Alison), Мишелль Борт (Sue), Ник Кролл (Adam), Тайлер Лэбин (McCrudden), Анджела Сарафян (Willow), Линдсэй Слоун (Laura), Мартин Старр (Duquez), Люси Панч (Kate), Уилл Форте (Glenn), Риз Койро (Marcus)

Описание : У тридцатилетнего Эрика неприятность: отец решил продать семейный загородный дом в Хэмптоне! Тот самый дом, в котором вот уже много лет подряд Эрик проводит грандиозные тематические вечеринки. Очевидно, теперь Эрику придется наконец-то повзрослеть и «взяться за ум». Но перед тем как дом уйдет с молотка, Эрик и группа друзей решают устроить заключительную, самую сумасшедшую прощальную вечеринку — Старую добрую оргию…

Похожие раздачи : Старая добрая оргия

Качество : BDRip 720p
Формат : MKV
Видео кодек : AVC
Аудио кодек : AC-3
Видео : MPEG-4 AVC Video / 8000 kbps / 1280x688 / 24 fps / High Profile 4.1
Аудио#1 : AC3, 6 ch, 640 Кбит/с, 48.0kHz | Русский|
Аудио#2 : AC3, 6 ch, 640 Кбит/с, 48.0kHz |Английский|
Формат субтитров : softsub (SRT)

Код:

General
Complete name : F:\HD фильмы\Staraya.dobraya.orgiya.2011.x264.BDRip.720p.HDTracker.mkv
Format : Matroska
File size : 6.13 GiB
Duration : 1h 34mn
Overall bit rate : 9 269 Kbps
Movie name : =HDTracker= by =WhiteHorse=
Encoded date : UTC 2010-08-27 15:11:22
Writing application : mkvmerge v4.4.0 ('Die Wiederkehr') сборка от Oct 31 2010 21:52:48
Writing library : libebml v1.0.0 + libmatroska v1.0.0
Video
ID : 1
Format : AVC
Format/Info : Advanced Video Codec
Format profile : [email protected]
Format settings, CABAC : Yes
Format settings, ReFrames : 6 frames
Codec ID : V_MPEG4/ISO/AVC
Duration : 1h 34mn
Bit rate : 8 000 Kbps
Width : 1 280 pixels
Height : 688 pixels
Display aspect ratio : 1.860
Frame rate : 24.000 fps
Color space : YUV
Chroma subsampling : 4:2:0
Bit depth : 8 bits
Scan type : Progressive
Bits/(Pixel*Frame) : 0.379
Stream size : 5.16 GiB (84%)
Title : Видеоряд
Writing library : x264 core 92 r1510 33d382a
Encoding settings : cabac=1 / ref=6 / deblock=1:-3:-3 / analyse=0x3:0x133 / me=umh / subme=10 / psy=1 / psy_rd=1.00:0.10 / mixed_ref=1 / me_range=32 / chroma_me=1 / trellis=2 / 8x8dct=1 / cqm=0 / deadzone=21,11 / fast_pskip=0 / chroma_qp_offset=-5 / threads=12 / sliced_threads=0 / nr=0 / decimate=1 / interlaced=0 / constrained_intra=0 / bframes=6 / b_pyramid=2 / b_adapt=2 / b_bias=0 / direct=3 / wpredb=1 / wpredp=2 / keyint=250 / keyint_min=23 / scenecut=40 / intra_refresh=0 / rc_lookahead=50 / rc=2pass / mbtree=1 / bitrate=8000 / ratetol=1.0 / qcomp=0.70 / qpmin=10 / qpmax=51 / qpstep=4 / cplxblur=20.0 / qblur=0.5 / vbv_maxrate=40000 / vbv_bufsize=30000 / ip_ratio=1.40 / aq=1:1.00 / nal_hrd=none
Audio #1
ID : 2
Format : AC-3
Format/Info : Audio Coding 3
Mode extension : CM (complete main)
Codec ID : A_AC3
Duration : 1h 34mn
Bit rate mode : Constant
Bit rate : 640 Kbps
Channel(s) : 6 channels
Channel positions : Front: L C R, Side: L R, LFE
Sampling rate : 48.0 KHz
Bit depth : 16 bits
Stream size : 433 MiB (7%)
Title : Дублированный
Language : Russian
Audio #2
ID : 3
Format : AC-3
Format/Info : Audio Coding 3
Mode extension : CM (complete main)
Codec ID : A_AC3
Duration : 1h 34mn
Bit rate mode : Constant
Bit rate : 640 Kbps
Channel(s) : 6 channels
Channel positions : Front: L C R, Side: L R, LFE
Sampling rate : 48.0 KHz
Bit depth : 16 bits
Stream size : 433 MiB (7%)
Title : Английский
Language : English
Text
ID : 4
Format : UTF-8
Codec ID : S_TEXT/UTF8
Codec ID/Info : UTF-8 Plain Text
Title : Русские
Language : Russian
Menu
00:00:00.000 : :Chapter 01
00:10:43.125 : :Chapter 02
00:17:45.291 : :Chapter 03
00:25:05.541 : :Chapter 04
00:32:13.375 : :Chapter 05
00:39:47.375 : :Chapter 06
00:47:33.916 : :Chapter 07
00:55:11.666 : :Chapter 08
01:04:36.416 : :Chapter 09
01:13:02.791 : :Chapter 10
01:22:26.041 : :Chapter 11
01:30:12.916 : :Chapter 12




Скачать Старая добрая оргия через торрент http://i30.fastpic.ru/big/2012/0129/6c/42fc083e23bf78e65c81924a1362416c.jpg Скачать, смотреть онлайн Старая добрая оргия бесплантно в хорошем качестве Описание : У тридцатилетнего Эрика неприятность: отец решил продать семейный загородный дом в Хэмптоне! Тот самый дом, в котором вот уже ... 5.5 10 2
Info! Золотая раздача, скачанное не засчитывается.
Торрент: Зарегистрирован [2012-04-27 17:24] · скачан: 81 раз
Статус: √ проверено
Размер: 6.13 GB
Как cкачать? Как скачать Старая добрая оргия через торрент | UTorrent

% Раздел Тема Автор DL S | L
Фильмы [HD 720p, 1080p] (Хороший звук DUB, MVO) [ 22.46 GB ] Старая добрая оргия / A Good Old Fashioned Orgy | | Blu-ray ACFIORENTINA Скачать
1 | 0

28-11-2019 20:33  


Отключить вcю реклaмy на сайте, в т.ч. и в плеере онлайн просмотра!

    Дорогой пользователь! Огромная просьба, поблагодарите релизера, оцените раздачу и оставьте свои комментарий, если Вы скачали Старая добрая оргия через торрент бесплатно!!
    Комментировать посты могут только пользователи прошедшие не сложную регистрацию
    Показать сообщения:    


    Старая добрая оргия через торрент
    Скачать бесплатно Старая добрая оргия
    Старая добрая оргия скачать торрент
    Старая добрая оргия смотреть онлайн
    Cкачать фильм Старая добрая оргия бесплатно
    Старая добрая оргия скачать торрент в хорошем качестве
    Старая добрая оргия смотреть онлайн бесплатно в хорошем качестве
    Вы не можете начинать темы
    Вы не можете отвечать на сообщения
    Вы не можете редактировать свои сообщения
    Вы не можете удалять свои сообщения
    Вы не можете голосовать в опросах
    Вы не можете прикреплять файлы к сообщениям
    Вы можете скачивать файлы
    Старая добрая оргия [2011, США, Комедия, BDRip 720p] смотреть онлайн, скачать торрент picoco.icu