2 сезон

iTunes

MVO

1

2 сезон

iTunes

iTunes

1 сезон

RePack

30

Новинка

ВАЖНО

ИГРА 18+

pack

RePack

MK11
pack

Легкие деньги

RePack

jed

RePack

fifa19

RePack

RDR2

RePack

NEED FOR SPEED™ PAYBACK

4 сезон

9 сезон

Бесстыжие 9 сезон

Все сериалы

все сериалы на PB.wtf

RePack

FAR CRY 5

Anonymous, доброй ночи, мы не успеваем собрать деньги на оплату серверов за декабрь и январь, помогите нам пожалуйста в это трудное время. В качестве благодарности мы отключим Вам всю рекламу на сайте (укажите свой ник в строку Ваше имя)!

×
  
Magnet ссылка

Война Богов: Бессмертные 3D (Тарсем Синх / Tarsem Sinh) [2011 г., Фэнтези, боевик, драма, DVD5] R5 Anaglyph / Анаглиф pb.wtf

Война Богов: Бессмертные 3D через торрент pb.wtf

Размер: 4.36 GB | Добавлен: 8 лет 8 мес. назад | Торрент скачан:188 раз
Скачать  

29-01-2012 18:25 Война Богов: Бессмертные 3D Скачать торрент  


Война Богов: Бессмертные 3D
«Богам нужен герой»
Страна: США
Студия: Hollywood Gang Productions, Mark Canton Productions, Relativity Media, Virgin Produc
Жанр: фэнтези, боевик, драма
Год выпуска: 2011
Мировая премьера: 10 ноября 2011
Российская премьера: 10 ноября 2011 3D
Дата выхода DVD: 19 января 2012
Дата выхода Blu-Ray: 19 января 2012
Продолжительность: 01:41:56
Перевод: Профессиональный (дублированный) [Лицензия]
Cубтитры: нет
Режиссер: Тарсем Синх / Tarsem Sinh
В ролях: Генри Кавилл, Стивен Дорфф, Люк Эванс, Изабель Лукас, Келлан Латс, Фрида Пинто, Микки Рурк, Джон Хёрт, Джозеф Морган, Энн Дэй-Джонс
Описание: Одержимый жаждой власти царь Гиперион хочет уничтожить род людской и низвергнуть богов. С помощью Эпирского Лука, сделанного руками бога войны Ареса, он освобождает Титанов от тысячелетнего заточения в горах Тартара. Боги бессильны противостоять безумному царю. Единственная надежда на спасение — герой Тесей, который вступает в неравную войну с Титанами. Боги Олимпа во главе с самим Зевсом, пророчица Федра и хитрый раб Ставрос помогают герою в смертельной битве с демонами. Тесей должен победить, или боги Олимпа будут низвержены, а Эллада обречена на погибель…
Бонусы: Создатели и исполнители, фотогалерея, смотрите на DVD

Качество: DVD5 R5
Формат: DVD-Video
Видео кодек: MPEG2
Аудио кодек: AC3
Видео: PAL 16:9 (720x576(0.332)) MPEG Video, 25,000 кадр/сек, 3443 Кбит/сек
Аудио #1: Russian (Dolby AC3, 6 ch) 448 Кбит/сек, 48,0 КГц
Аудио #2: Russian (DTS, 6 ch) 768 Кбит/сек, 48,0 КГц



Title:
Size: 4.36 Gb ( 4 569 266 KBytes ) - DVD-5
Enabled regions: 1, 2, 3, 4, 5, 6, 7, 8

VTS_01 :
Play Length: 00:00:05
Video: PAL 4:3 (720x576) VBR
Subtitles:
English
English

VTS_02 :
Play Length: 00:00:05
Video: PAL 16:9 (720x576) VBR, Auto Pan&Scan
Subtitles:
Not specified

VTS_03 :
Play Length: 00:02:25
Video: PAL 16:9 (720x576) VBR, Auto Pan&Scan
Audio:
Not specified (Dolby AC3, 6 ch)
Not specified (Dolby AC3, 6 ch)
Subtitles:
Not specified

VTS_04 :
Play Length: 00:01:52
Video: PAL 16:9 (720x576) VBR, Auto Pan&Scan
Audio:
Not specified (Dolby AC3, 6 ch)
Not specified (Dolby AC3, 6 ch)
Subtitles:
Not specified

VTS_05 :
Play Length: 00:00:16
Video: PAL 16:9 (720x576) VBR, Auto Pan&Scan
Audio:
Not specified (Dolby AC3, 2 ch)
Not specified (Dolby AC3, 2 ch)
Subtitles:
Not specified

VTS_06 :
Play Length: 01:45:56
Video: PAL 16:9 (720x576) VBR, Auto Pan&Scan
Audio:
Russian (Dolby AC3, 6 ch)
Russian (DTS, 6 ch)

VTS_07 :
Play Length: 00:02:00
Video: PAL 16:9 (720x576) VBR, Auto Pan&Scan
Audio:
Not specified (Dolby AC3, 2 ch)
Subtitles:
Not specified

VTS_08 :
Play Length: 00:02:22
Video: PAL 16:9 (720x576) VBR, Auto Pan&Scan
Audio:
Not specified (Dolby AC3, 2 ch)
Subtitles:
Not specified

VTS_09 :
Play Length: 00:01:33
Video: PAL 16:9 (720x576) VBR, Auto Pan&Scan
Audio:
Not specified (Dolby AC3, 2 ch)
Subtitles:
Not specified

VTS_10 :
Play Length: 00:02:00
Video: PAL 16:9 (720x576) VBR, Auto Pan&Scan
Audio:
Not specified (Dolby AC3, 2 ch)
Subtitles:
Not specified

VTS_11 :
Play Length: 00:01:37
Video: PAL 16:9 (720x576) VBR, Auto Pan&Scan
Audio:
Not specified (Dolby AC3, 2 ch)
Subtitles:
Not specified

VTS_12 :
Play Length: 00:01:42
Video: PAL 16:9 (720x576) VBR, Auto Pan&Scan
Audio:
Not specified (Dolby AC3, 2 ch)
Общее
Полное имя : G:\Новинки 2012\Vojna.Bogov.Bessmertnye.3D.2011.DVD5\VIDEO_TS\VTS_06_1.VOB
Формат : MPEG-PS
Размер файла : 1024 Мбайт
Продолжительность : 30 м.
Общий поток : 4740 Кбит/сек

Видео
Идентификатор : 224 (0xE0)
Формат : MPEG Video
Версия формата : Version 2
Профиль формата : Main@Main
Параметр BVOP формата : Да
Параметр матрицы формата : Выборочная
Продолжительность : 30 м.
Вид битрейта : Переменный
Битрейт : 3443 Кбит/сек
Максимальный битрейт : 5000 Кбит/сек
Ширина : 720 пикселей
Высота : 576 пикселей
Соотношение сторон : 16:9
Частота кадров : 25,000 кадров/сек
Стандарт вещания : PAL
Цветовое пространство : YUV
Субдискретизация насыщенности : 4:2:0
Битовая глубина : 8 бит
Тип развёртки : Прогрессивная
Метод сжатия : С потерями
Бит/(Пиксели*Кадры) : 0.332
Размер потока : 744 Мбайт (73%)

Аудио #1
Идентификатор : 189 (0xBD)-128 (0x80)
Формат : AC-3
Формат/Информация : Audio Coding 3
Расширение режима : CM (complete main)
Режим смешивания : DVD-Video
Продолжительность : 30 м.
Вид битрейта : Постоянный
Битрейт : 448 Кбит/сек
Каналы : 6 каналов
Расположение каналов : Front: L C R, Side: L R, LFE
Частота : 48,0 КГц
Битовая глубина : 16 бит
Метод сжатия : С потерями
Размер потока : 96,8 Мбайт (9%)

Аудио #2
Идентификатор : 189 (0xBD)-137 (0x89)
Формат : DTS
Формат/Информация : Digital Theater Systems
Режим смешивания : DVD-Video
Продолжительность : 30 м.
Вид битрейта : Постоянный
Битрейт : 755 Кбит/сек
Каналы : 6 каналов
Расположение каналов : Front: L C R, Side: L R, LFE
Частота : 48,0 КГц
Битовая глубина : 24 бит
Метод сжатия : С потерями
Размер потока : 163 Мбайт (16%)










pb.wtf



Скачать Война Богов: Бессмертные 3D через торрент http://i2.imageban.ru/out/2012/01/14/24e524e7499f107d82b874c8ba2cb881.jpg Скачать фильм Война Богов: Бессмертные 3D через торрент бесплантно в хорошем качестве Описание: Одержимый жаждой власти царь Гиперион хочет уничтожить род людской и низвергнуть богов. С помощью Эпирского Лука, сделанного ... 10 10 1
Info! Золотая раздача, скачанное не засчитывается.
Торрент: Зарегистрирован [2012-04-27 18:22] · скачан: 188 раз
Статус: √ проверено
Размер: 4.36 GB
Как cкачать? Как скачать Война Богов: Бессмертные 3D через торрент | UTorrent

28-11-2019 20:33  

Отключить всю рекламу на сайте

04-02-2012 08:23 Война Богов: Бессмертные 3D Скачать торрент  

а стерео пары будут?pb.wtf



10-02-2012 09:27 Война Богов: Бессмертные 3D Скачать торрент  

спасибо !!!pb.wtf



14-02-2012 16:19 Война Богов: Бессмертные 3D Скачать торрент  

каким плеером и какой файл открыть подскажите пожалуйстаpb.wtf



20-01-2013 12:29 Война Богов: Бессмертные 3D Скачать торрент  

зря скачал, качество ужасное! не качайте!pb.wtf



    Дорогой пользователь! Огромная просьба, поблагодарите релизера, оцените раздачу и оставьте свои комментарий, если Вы скачали Война Богов: Бессмертные 3D через торрент бесплатно! Внесите свою лепту в развитие PiratBit!
    Комментировать посты могут только пользователи прошедшие не сложную регистрацию
    Показать сообщения:    

    Война Богов: Бессмертные 3D через торрент
    Скачать бесплатно Война Богов: Бессмертные 3D
    Война Богов: Бессмертные 3D скачать торрент
    Война Богов: Бессмертные 3D смотреть онлайн
    Cкачать фильм Война Богов: Бессмертные 3D бесплатно
    Война Богов: Бессмертные 3D скачать торрент в хорошем качестве
    Война Богов: Бессмертные 3D смотреть онлайн бесплатно в хорошем качестве


    Вы не можете начинать темы
    Вы не можете отвечать на сообщения
    Вы не можете редактировать свои сообщения
    Вы не можете удалять свои сообщения
    Вы не можете голосовать в опросах
    Вы не можете прикреплять файлы к сообщениям
    Вы можете скачивать файлы