Ссылка на приватное зеркало нашего сайта всего за 1$. Внимание количество ограничено!!!

2 сезон

iTunes

1 сезон

1

iTunes

iTunes

iTunes

1 сезон

RePack

30

ИГРА 18+

pack

ВАЖНО

!!Акция!!

Alien_RageХит недели

RePack

MK11
pack

Забери бонус

RePack

jed

!!Акция!!

Alien_Rage

RePack

fifa19

RePack

Assassins Creed: Odyssey

RePack

NEED FOR SPEED™ PAYBACK

4 сезон

9 сезон

Бесстыжие 9 сезон

Все сериалы

все сериалы на PB.wtf

RePack

FAR CRY 5
  

ОТРЫВ Сезон: 1 Серии: 8 из 8 (Сергей Попов) [2012 г., Военная драма, DVD5 (сжатый) pb.wtf

ОТРЫВ Сезон: 1 Серии: 8 из 8 через торрент pb.wtf

Размер: 4.31 GB | Добавлен: 8 лет 6 мес. назад | Торрент скачан:63 раза
Скачать  

08-04-2012 14:16 ОТРЫВ Сезон: 1 Серии: 8 из 8 Скачать торрент  

ОТРЫВ

Год выпуска: 2012
Страна: РОССИЯ
Жанр: Военная драма
Продолжительность: 00:48:00
Перевод: Не требуется

Режиссер: Сергей Попов
Продюссер: Юрий Сапронов, Андрей Смирнов, Дмитрий Месхиев
Сценарий: Илья Рубинштейн, Валентин Емельянов

http://www.kinopoisk.ru/level/1/film/491863/

В ролях: Игорь Петренко
Андрей Смоляков
Кристина Кузьмина
Андрей Панин
Елена Лядова
Николай Добрынин
Владимир Колганов
Игорь Скляр
Дмитрий Поднозов
Андрей Зибров

Описание: В 1947 году Алексей Митрохин приезжает в послевоенную Москву навестить своего друга, бывшего комбата Аргунова, который во время войны спас его жизнь. Но оказывается, что комбат осужден на 25 лет и пребывает в лагере строго режима. Герой решается на отчаянный поступок — любой ценой вызволить друга…

Митрохин имитирует покушение на вождя народов товарища Сталина и получает приговор — четверть века в лагере самой высокой режимной категории — карельском «Лазо». В бараке он встречает, наконец, своего друга и произносит одну единственную фразу: «А я за тобой, комбат».

Бежать из «Лазо» еще никому не удавалось. С северной стороны лагеря — озеро, с юга — обнесенный колючей проволокой участок суши. С первого взгляда, затея совершить побег кажется безумной, но выясняется, что до войны Алексей учился в гидротехническом институте и проходил практику именно в том месте, где сейчас расположен концлагерь. В голове героя мгновенно вырабатывается совершенно невероятный план: использовать для побега плавающие торфяные острова…

Качество: DVD5 (сжатый)
Формат: DVD Video
Видео кодек: MPEG2
Аудио кодек: AC3
Видео: PAL 16:9 (352x288) Bit rate : 4 251 Kbps. 25.000 fps
Аудио#1: AC3 2 ch. 128kb/s. 48,0 КГц


General
Complete name : D:\VIDEO_TS\VTS_01_1.VOB
Format : MPEG-PS
File size : 1 000 MiB
Duration : 31mn 17s
Overall bit rate mode : Variable
Overall bit rate : 4 468 Kbps
Writing library : encoded by TMPGEnc 4.0 XPress Version. 4.7.7.307

Video
ID : 224 (0xE0)
Format : MPEG Video
Format version : Version 2
Format profile : Main@Main
Format settings, BVOP : Yes
Format settings, Matrix : Custom
Format settings, GOP : M=3, N=18
Duration : 31mn 17s
Bit rate mode : Variable
Bit rate : 4 251 Kbps
Maximum bit rate : 8 000 Kbps
Width : 720 pixels
Height : 576 pixels
Display aspect ratio : 16:9
Frame rate : 25.000 fps
Standard : PAL
Color space : YUV
Chroma subsampling : 4:2:0
Bit depth : 8 bits
Scan type : Progressive
Compression mode : Lossy
Bits/(Pixel*Frame) : 0.410
Stream size : 951 MiB (95%)
Writing library : TMPGEnc XPress / 4.7.7.307 4.7.7.307
Color primaries : BT.470-2 System B, BT.470-2 System G
Transfer characteristics : BT.470-2 System B, BT.470-2 System G
Matrix coefficients : BT.470-2 System B, BT.470-2 System G

Audio
ID : 189 (0xBD)-128 (0x80)
Format : AC-3
Format/Info : Audio Coding 3
Mode extension : CM (complete main)
Format settings, Endianness : Big
Muxing mode : DVD-Video
Duration : 31mn 17s
Bit rate mode : Constant
Bit rate : 128 Kbps
Channel(s) : 2 channels
Channel positions : Front: L R
Sampling rate : 48.0 KHz
Bit depth : 16 bits
Compression mode : Lossy
Stream size : 28.6 MiB (3%)

pb.wtf



Скачать ОТРЫВ Сезон: 1 Серии: 8 из 8 через торрент http://i33.fastpic.ru/big/2012/0408/14/42f7c5c279fd2b9a84022ae52f446a14.png Скачать фильм ОТРЫВ Сезон: 1 Серии: 8 из 8 через торрент бесплантно в хорошем качестве Описание: В 1947 году Алексей Митрохин приезжает в послевоенную Москву навестить своего друга, бывшего комбата Аргунова, который во время ... 9.7 10 6
Info! Золотая раздача, скачанное не засчитывается.
Торрент: Зарегистрирован [2012-04-27 18:53] · скачан: 63 раз
Статус: √ проверено
Размер: 4.31 GB
Как cкачать? Как скачать ОТРЫВ Сезон: 1 Серии: 8 из 8 через торрент | qTorrent

% Раздел Тема Автор DL S | L
Наши сериалы [ 4.19 GB ] Отрыв/Сезон: 1/ Серии: 8 из 8/ [2012 DVDRip] -=Cherry=- Скачать
1 | 0


Последний раз редактировалось: SergeyVideoGid (2012-04-08 15:09), всего редактировалось 8 раз(а)

28-11-2019 20:33  

Отключить всю рекламу на сайте

08-04-2012 14:28 ОТРЫВ Сезон: 1 Серии: 8 из 8 Скачать торрент  

SergeyVideoGid
Постер должен быть не кликабельный по увеличению. Не полная информация по видео ряду. Укажи битрейт видео и частоту кадра. Где выложены скриншоты убери тег спойлера или сделай его как положено.pb.wtf



08-04-2012 15:00 ОТРЫВ Сезон: 1 Серии: 8 из 8 Скачать торрент  

как скачать javascript:emoticon(' ')pb.wtf



08-04-2012 15:12 ОТРЫВ Сезон: 1 Серии: 8 из 8 Скачать торрент  

Поправил вродеpb.wtf



08-04-2012 17:57 ОТРЫВ Сезон: 1 Серии: 8 из 8 Скачать торрент  

SergeyVideoGid
Статус сомнительно. Знаю источник.pb.wtf



09-04-2012 11:17 ОТРЫВ Сезон: 1 Серии: 8 из 8 Скачать торрент  

Что-то ХР ень, какая-то, вместо меню, какая-то реклама!?pb.wtf



15-04-2012 18:56 ОТРЫВ Сезон: 1 Серии: 8 из 8 Скачать торрент  

Зачем сюда столько рекламы засунуто хуже чем поТВ смотреть , я прогнал через Clon DVD убрал рекламу теперь можна смотреть!pb.wtf



    Дорогой пользователь! Огромная просьба, поблагодарите релизера, оцените раздачу и оставьте свои комментарий, если Вы скачали ОТРЫВ Сезон: 1 Серии: 8 из 8 через торрент бесплатно! Внесите свою лепту в развитие PiratBit!
    Комментировать посты могут только пользователи прошедшие не сложную регистрацию
    Показать сообщения:    

    ОТРЫВ Сезон: 1 Серии: 8 из 8 через торрент
    Скачать бесплатно ОТРЫВ Сезон: 1 Серии: 8 из 8
    ОТРЫВ Сезон: 1 Серии: 8 из 8 скачать торрент
    ОТРЫВ Сезон: 1 Серии: 8 из 8 смотреть онлайн
    Cкачать фильм ОТРЫВ Сезон: 1 Серии: 8 из 8 бесплатно
    ОТРЫВ Сезон: 1 Серии: 8 из 8 скачать торрент в хорошем качестве
    ОТРЫВ Сезон: 1 Серии: 8 из 8 смотреть онлайн бесплатно в хорошем качестве


    Вы не можете начинать темы
    Вы не можете отвечать на сообщения
    Вы не можете редактировать свои сообщения
    Вы не можете удалять свои сообщения
    Вы не можете голосовать в опросах
    Вы не можете прикреплять файлы к сообщениям
    Вы можете скачивать файлы