Всегда рабочее зеркало без VPN и Proxy просто перед .vidak.icu напиши любое слово или цифру, Пример http://9hgv.vidak.icu

Лицензия

MVO

1 сезон

1

1 сезон

iTunes

1 сезон

13

1 сезон

Deluxe

pack

Рекомендуем

Repack

30

ВАЖНО

RePack

MK11

RePack

jed

RePack

fifa19

RePack

RDR2

RePack

NEED FOR SPEED™ PAYBACK

Кинопоиск HD

6 сезон

 Острые козырьки 6 сезон

Все сериалы

все сериалы на PB.wtf

RePack

FAR CRY 5
  
Magnet ссылка

Я объявляю войну [2011 г., драма, мелодрама, DVDRip, лицензия] pb.wtf

Я объявляю войну через торрент pb.wtf

Размер: 1.36 GB | Добавлен: 10 лет назад | Торрент скачан:137 раз
Смотреть онлайн Я объявляю войну | Скачать    Ребята, помогите собрать деньги на оплату серверов!!!

23-11-2011 18:16 Я объявляю войну Скачать торрент  

Я объявляю войнуГод выпуска: 2011
Страна: Франция
Жанр: драма, мелодрама
Продолжительность: 01:35:54
Перевод: Профессиональный (многоголосый, закадровый)
Тип релиза: Лицензия

Режиссер: Валери Донзелли

В ролях: Валери Донзелли, Жереми Элькайм, Сesar Desseix, Гэбриел Элькайм, Брижит Си, Элина Лёвензон, Мишель Моретти, Филипп Лоденбаш, Бастьен Буллон, Beatrice De Stael

Описание: Это история о молодой и хрупкой любви, о Джульетте и Ромео, которых внезапный удар выбрасывает из их теплого и гармоничного мира любви и нежности в жестокость хаоса. Болезнь их долгожданного сына, Адама, заставит их столкнуться с тяжелейшим испытанием и, наконец, повзрослеть. Но каким бы тяжелым не казался их наполненный страданиями путь, именно этот путь поможет начать им жить по-настоящему. Трагедия откроет им их удивительную смелость и силу. Жизнь — долгий путь, полный невзгод и опасностей, но только на войне мы можем раскрыть силу истинной любви. И выйти из битвы победителями.»...

Качество: DVDRip
Формат: AVI
Видео кодек: XviD
Аудио кодек: AC3
Видео: XviD, 720x304, 25 fps, 1637 Kbit/s
Аудио: Dolby AC3, 48000 Hz, 6 каналов, 384 kbit/s

скриншот  скриншот  скриншот  
pb.wtf



Скачать Я объявляю войну через торрент http://i29.fastpic.ru/big/2011/1123/c8/866c5bd38e0c11a2f459798e36328fc8.jpg Скачать, смотреть онлайн Я объявляю войну [2011 г., драма, мелодрама, DVDRip, лицензия] бесплантно в хорошем качестве Описание: Это история о молодой и хрупкой любви, о Джульетте и Ромео, которых внезапный удар выбрасывает из их теплого и гармоничного мира ... 4 10 5
Info! Золотая раздача, скачанное не засчитывается.
Торрент: Зарегистрирован [2011-11-23 18:16] · скачан: 137 раз
Статус: √ проверено
Размер: 1.36 GB
Как cкачать? Как скачать Я объявляю войну через торрент | UTorrent

% Раздел Тема Автор DL S | L
Кино СССР [ 1.37 GB ] Я объявляю вам войну [1990 DVDRip] lug30 Скачать
1 | 0
Фильмы 2013 (Звук TS, Cam, VO, DVO) [ 1.37 GB ] Я объявляю войну / I Declare War [2012 WEB-DLRip VO[den904]] Ворон Скачать
1 | 0
Фильмы 2011 [ 742 MB ] Я объявляю войну / La guerre est dйclarйe [2011 DVDRip лицензия] Sудья Скачать
1 | 0
Фильмы (DVD фильмы) [ 6.38 GB ] Я объявляю войну / La guerre est declaree [2011 DVD9] R5 «Кармен Видео» voovaz Скачать
1 | 0

28-11-2019 20:33  

Отключить вcю реклaмy на сайте

23-11-2011 19:14 Я объявляю войну Скачать торрент  

Красава на 6 минут раньше моего. Пришлось новый искать pb.wtf



24-11-2011 07:54 Я объявляю войну Скачать торрент  

Мой топик по техданным был лучше. кто его выкинул?
Число качавших было больше!
Общее
Полное имя : Y_obyavlyay_voyny_DVDRip.avi
Формат : AVI
Формат/Информация : Audio Video Interleave
Размер файла : 1,53 Гбайт
Продолжительность : 1 ч. 35 м.
Общий поток : 2288 Кбит/сек
Программа кодирования : VirtualDubMod 1.5.10.2 (build 2540/release)
Библиотека кодирования : VirtualDub build 32842/release

Видео
Идентификатор : 0
Формат : MPEG-4 Visual
Профиль формата : Advanced [email protected]
Параметр BVOP формата : 1
Параметр QPel формата : Нет
Параметр GMC формата : Без точки перехода
Параметр матрицы формата : Выборочная
Идентификатор кодека : XVID
Идентификатор кодека/Подсказка : XviD
Продолжительность : 1 ч. 35 м.
Битрейт : 1895 Кбит/сек
Ширина : 720 пикселей
Высота : 304 пикселя
Соотношение сторон : 2,35:1
Частота кадров : 25,000 кадров/сек
Цветовое пространство : YUV
Субдискретизация насыщенности : 4:2:0
Битовая глубина : 8 бит
Тип развёртки : Прогрессивная
Метод сжатия : С потерями
Бит/(Пиксели*Кадры) : 0.346
Размер потока : 1,27 Гбайт (83%)
Библиотека кодирования : XviD 1.2.1 (UTC 2008-12-04)

Аудио
Идентификатор : 1
Формат : AC-3
Формат/Информация : Audio Coding 3
Расширение режима : CM (complete main)
Идентификатор кодека : 2000
Продолжительность : 1 ч. 35 м.
Вид битрейта : Постоянный
Битрейт : 384 Кбит/сек
Каналы : 6 каналов
Расположение каналов : Front: L C R, Side: L R, LFE
Частота : 48,0 КГц
Битовая глубина : 16 бит
Метод сжатия : С потерями
Задержка видео : 1 с. 550 мс.
Размер потока : 263 Мбайт (17%)
Выравнивание : Разделение по промежуткам
Продолжительность промежутка : 40 мс. (1,00 видеокадр)
Время предзагрузки промежутка : 500 мс.
Никого уважения к труду релизеров...
Относитесь как к быдлу...pb.wtf



    Дорогой пользователь! Огромная просьба, поблагодарите релизера, оцените раздачу и оставьте свои комментарий, если Вы скачали Я объявляю войну через торрент бесплатно!
    Комментировать посты могут только пользователи прошедшие не сложную регистрацию
    Показать сообщения:    

    Я объявляю войну через торрент
    Скачать бесплатно Я объявляю войну
    Я объявляю войну скачать торрент
    Я объявляю войну смотреть онлайн
    Cкачать фильм Я объявляю войну бесплатно
    Я объявляю войну скачать торрент в хорошем качестве
    Я объявляю войну смотреть онлайн бесплатно в хорошем качестве


    Вы не можете начинать темы
    Вы не можете отвечать на сообщения
    Вы не можете редактировать свои сообщения
    Вы не можете удалять свои сообщения
    Вы не можете голосовать в опросах
    Вы не можете прикреплять файлы к сообщениям
    Вы можете скачивать файлы