1 сезон

3 сезон

iTunes

1

Line

MVO

iTunes

13

1 сезон

RePack

30

Deluxe

pack

Лицензия

ВАЖНО

ИГРА 18+

pack

RePack

MK11

RePack

jed

RePack

fifa19

RePack

RDR2

RePack

NEED FOR SPEED™ PAYBACK

4 сезон

9 сезон

Бесстыжие 9 сезон

Все сериалы

все сериалы на PB.wtf

RePack

FAR CRY 5

Anonymous, добрый вечер, мы катастрофически не успеваем собрать деньги на оплату серверов, помогите нам пожалуйста 5,10,15р., для нас важна любая помощь . В качестве благодарности мы отключим Вам всю рекламу на сайте (укажите свой ник в строку Ваше имя)!

×
  
Magnet ссылка

Мистер Ганджубас / Mr. Nice (Бернард Роуз) [2010 г., драма, комедия, биография, DVD9, Профессиональный (многоголосый) (лицензия)] pb.wtf

Мистер Ганджубас через торрент pb.wtf

Размер: 6.93 GB | Добавлен: 9 лет 3 мес. назад | Торрент скачан:76 раз
Скачать  

27-04-2012 19:36 Мистер Ганджубас Скачать торрент  

Мистер Ганджубас / Mr. Nice

Год выпуска: 2010
Страна: Великобритания, Испания
Жанр: драма, комедия, биография
Продолжительность: 01:55:55
Перевод: Профессиональный (многоголосый) (Лицензия)
  • Режиссер: Бернард Роуз
  • Продюссер: Люк Роуг, Марк Албела, Дэнис Педрегоза
  • Сценарий: Бернард Роуз, Howard Marks

  • Композитор: Филип Гласс

В ролях: Рис Иванс, Клоэ Севиньи, Дэвид Тьюлис, Луис Тосар, Криспин Гловер, Омид Джалили, Кристиан МакКэй, Эльза Патаки, Джек Хьюстон, Джэми Харрис

Описание: Фильм снят по популярной автобиографии Говарда Маркса, одного из самых известных в мире контрабандистов марихуаны.
  • Качество: DVD9
  • Формат: DVD Video
  • Видео кодек: MPEG2
  • Аудио кодек: AC3
  • Видео: MPEG 2, 720x576 (16:9), 25.000 fps, 8 000 Kbps (0.668 bit/pixel)
  • Аудио#1: AC-3, 48.0 KHz, 6 ch, 384 Kbps, CBR
  • Аудио#2: AC-3, 48.0 KHz, 6 ch, 384 Kbps, CBR
  • Субтитры: Русские

Скриншоты меню

скриншот  скриншот  скриншот  скриншот  
скриншот  скриншот  скриншот  скриншот  
Скриншоты

скриншот  скриншот  скриншот  скриншот  
скриншот  скриншот  скриншот  скриншот  

Код:

Общее
Полное имя                               : F:\Mister.Gandzhubas.2010.P.DVD.IRONCLUB\VTS_09_1.VOB
Формат                                   : MPEG-PS
Размер файла                             : 1024 Мбайт
Продолжительность                        : 18 м.
Режим общего битрейта                    : Переменный
Общий поток                              : 7850 Кбит/сек

Видео
Идентификатор                            : 224 (0xE0)
Формат                                   : MPEG Video
Версия формата                           : Version 2
Профиль формата                          : Main@Main
Параметр BVOP формата                    : Да
Параметр матрицы формата                 : По умолчанию
Параметр GOP формата                     : M=3, N=12
Продолжительность                        : 18 м.
Вид битрейта                             : Переменный
Битрейт                                  : 6926 Кбит/сек
Максимальный битрейт                     : 8000 Кбит/сек
Ширина                                   : 720 пикселей
Высота                                   : 576 пикселей
Соотношение сторон                       : 16:9
Частота кадров                           : 25,000 кадров/сек
Стандарт вещания                         : PAL
Цветовое пространство                    : YUV
Субдискретизация насыщенности            : 4:2:0
Битовая глубина                          : 8 бит
Тип развёртки                            : Чересстрочная
Порядок развёртки                        : Верхнее поле первое
Метод сжатия                             : С потерями
Бит/(Пиксели*Кадры)                      : 0.668
Размер потока                            : 903 Мбайт (88%)

Аудио #1
Идентификатор                            : 189 (0xBD)-128 (0x80)
Формат                                   : AC-3
Формат/Информация                        : Audio Coding 3
Расширение режима                        : CM (complete main)
Параметр Endianness формата              : Big
Режим смешивания                         : DVD-Video
Продолжительность                        : 18 м.
Вид битрейта                             : Постоянный
Битрейт                                  : 384 Кбит/сек
Каналы                                   : 6 каналов
Расположение каналов                     : Front: L C R, Side: L R, LFE
Частота                                  : 48,0 КГц
Битовая глубина                          : 16 бит
Метод сжатия                             : С потерями
Задержка видео                           : -80 мс.
Размер потока                            : 50,1 Мбайт (5%)

Аудио #2
Идентификатор                            : 189 (0xBD)-129 (0x81)
Формат                                   : AC-3
Формат/Информация                        : Audio Coding 3
Расширение режима                        : CM (complete main)
Параметр Endianness формата              : Big
Режим смешивания                         : DVD-Video
Продолжительность                        : 18 м.
Вид битрейта                             : Постоянный
Битрейт                                  : 384 Кбит/сек
Каналы                                   : 6 каналов
Расположение каналов                     : Front: L C R, Side: L R, LFE
Частота                                  : 48,0 КГц
Битовая глубина                          : 16 бит
Метод сжатия                             : С потерями
Задержка видео                           : -80 мс.
Размер потока                            : 50,1 Мбайт (5%)

Текст
Идентификатор                            : 189 (0xBD)-32 (0x20)
Формат                                   : RLE
Формат/Информация                        : Run-length encoding
Режим смешивания                         : DVD-Video
Продолжительность                        : 18 м.
Задержка видео                           : 560 мс.

Меню


Код:

Title: Mister.Gandzhubas.2010.P.DVD.IRONCLUB
Size: 6.93 Gb ( 7 266 246,00 KBytes ) - DVD-9
Enabled regions: 1, 2, 3, 4, 5, 6, 7, 8

VTS_01 :
  Play Length: 00:00:10
  Video: PAL 16:9 (720x576) VBR, Auto Pan&Scan, Auto Letterboxed

VTS_02 :
  Play Length: 00:00:07
  Video: PAL 16:9 (720x576) VBR, Auto Pan&Scan, Auto Letterboxed
  Audio:
      English, AC3, 3/2 (L,C,R,SL,SR)+LFE ch, 448 kbps, Delay 0 mSec


VTS_03 :
  Play Length: 00:01:55
  Video: PAL 16:9 (720x576) VBR, Auto Letterboxed
  Audio:
      Russian (Dolby AC3, 2 ch)
      English (Dolby AC3, 2 ch)

VTS_04 :
  Play Length: 00:02:17
  Video: PAL 16:9 (720x576) VBR, Auto Letterboxed
  Audio:
      Russian, AC3, 2/0 (L,R) ch, 192 kbps, Delay 0 mSec
      English, AC3, 2/0 (L,R) ch, 192 kbps, Delay 0 mSec


VTS_05 :
  Play Length: 00:02:02
  Video: PAL 4:3 (720x576) VBR
  Audio:
      Russian (Dolby AC3, 2 ch)
      Nederlands (Dolby AC3, 2 ch)

VTS_06 :
  Play Length: 00:01:54
  Video: PAL 16:9 (720x576) VBR, Auto Letterboxed
  Audio:
      Russian (Dolby AC3, 2 ch)
      Francais (Dolby AC3, 2 ch)

VTS_07 :
  Play Length: 00:01:39
  Video: PAL 16:9 (720x576) VBR, Auto Letterboxed
  Audio:
      Russian (Dolby AC3, 2 ch)
      Francais (Dolby AC3, 2 ch)

VTS_08 :
  Play Length: 00:02:30
  Video: PAL 16:9 (720x576) VBR, Auto Letterboxed
  Audio:
      Russian (Dolby AC3, 2 ch)
      Portugues (Dolby AC3, 2 ch)

VTS_09 :
  Play Length: 01:55:55
  Video: PAL 16:9 (720x576) VBR, Auto Letterboxed
  Audio:
      Russian (Dolby AC3, 6 ch)
      English (Dolby AC3, 6 ch)
  Subtitles:
      Russian

* Menus Information *

VIDEO_TS Menu
Video:
      PAL 16:9 (720x576) VBR
      Auto Pan&Scan, Auto Letterboxed
English Language Unit :
      Title Menu

VTS_01 Menu
Video:
      PAL 16:9 (720x576) VBR
      Auto Letterboxed
Audio:
      Not specified (Dolby AC3, 2 ch)
English Language Unit :
      Root Menu

VTS_02 Menu
Video:
      PAL 4:3 (720x576) VBR
English Language Unit :
      Root Menu

VTS_03 Menu
Video:
      PAL 4:3 (720x576) VBR
English Language Unit :
      Root Menu

VTS_04 Menu
Video:
      PAL 4:3 (720x576) VBR
English Language Unit :
      Root Menu

VTS_05 Menu
Video:
      PAL 4:3 (720x576) VBR
English Language Unit :
      Root Menu

VTS_06 Menu
Video:
      PAL 4:3 (720x576) VBR
English Language Unit :
      Root Menu

VTS_07 Menu
Video:
      PAL 4:3 (720x576) VBR
English Language Unit :
      Root Menu

VTS_08 Menu
Video:
      PAL 4:3 (720x576) VBR
English Language Unit :
      Root Menu

VTS_09 Menu
Video:
      PAL 4:3 (720x576) VBR
English Language Unit :
      Root Menu


pb.wtf



Скачать Мистер Ганджубас через торрент https://pic1.kartinco.top/images/2000/jdn4w9jc4e.png Скачать фильм Мистер Ганджубас через торрент бесплантно в хорошем качестве Описание: Фильм снят по популярной автобиографии Говарда Маркса, одного из самых известных в мире контрабандистов ... 9 10 1
Info! Золотая раздача, скачанное не засчитывается.
Торрент: Зарегистрирован [2012-04-27 19:36] · скачан: 76 раз
Статус: √ проверено
Размер: 6.93 GB
Как cкачать? Как скачать Мистер Ганджубас через торрент | UTorrent

28-11-2019 20:33  

Отключить всю рекламу на сайте


27-04-2012 20:26 Мистер Ганджубас Скачать торрент  

Наркоман павлик English Editionpb.wtf



    Дорогой пользователь! Огромная просьба, поблагодарите релизера, оцените раздачу и оставьте свои комментарий, если Вы скачали Мистер Ганджубас через торрент бесплатно! Внесите свою лепту в развитие PiratBit!
    Комментировать посты могут только пользователи прошедшие не сложную регистрацию
    Показать сообщения:    

    Мистер Ганджубас через торрент
    Скачать бесплатно Мистер Ганджубас
    Мистер Ганджубас скачать торрент
    Мистер Ганджубас смотреть онлайн
    Cкачать фильм Мистер Ганджубас бесплатно
    Мистер Ганджубас скачать торрент в хорошем качестве
    Мистер Ганджубас смотреть онлайн бесплатно в хорошем качестве


    Вы не можете начинать темы
    Вы не можете отвечать на сообщения
    Вы не можете редактировать свои сообщения
    Вы не можете удалять свои сообщения
    Вы не можете голосовать в опросах
    Вы не можете прикреплять файлы к сообщениям
    Вы можете скачивать файлы