2 сезон

iTunes

MVO

1

2 сезон

iTunes

iTunes

1 сезон

RePack

30

Новинка

ВАЖНО

ИГРА 18+

pack

RePack

MK11
pack

Легкие деньги

RePack

jed

RePack

fifa19

RePack

RDR2

RePack

NEED FOR SPEED™ PAYBACK

4 сезон

9 сезон

Бесстыжие 9 сезон

Все сериалы

все сериалы на PB.wtf

RePack

FAR CRY 5

Anonymous, добрый день, мы не успеваем собрать деньги на оплату серверов за декабрь и январь, помогите нам пожалуйста в это трудное время. В качестве благодарности мы отключим Вам всю рекламу на сайте (укажите свой ник в строку Ваше имя)!

×
  
Magnet ссылка

[AndreaNobiliProductions] Thayssa (Magic creams) [27.04.2012г., Tranny, Cream, Bodystocking, All Sex, SiteRip] pb.wtf

через торрент pb.wtf

Размер: 807 MB | Добавлен: 8 лет 8 мес. назад | Торрент скачан:51 раз
Скачать  

28-04-2012 10:35 Скачать торрент  

[AndreaNobiliProductions.com]
Thayssa
Magic creams
[27.04.2012г.]

Год производства: 2012 г.
Жанр: Tranny, Cream, Bodystocking, All Sex
Продолжительность: 00:47:13

Студия: AndreaNobiliProductions.com
В ролях: Thayssa

Качество видео: SiteRip
Формат видео: MP4
Видео кодек: AVC
Аудио кодек: AAC
Видео: 25.000 fps, 2 287 Kbps, 720x480
Аудио: 128 Kbps, 2 channels, 48.0 KHz

Описание:


Body cream, whipped cream...
any excuse is good to suck cocks!

General
Complete name : Thayssa Magic creams.mp4
Format : MPEG-4
Format profile : Base Media
Codec ID : isom
File size : 807 MiB
Duration : 47mn 13s
Overall bit rate mode : Variable
Overall bit rate : 2 389 Kbps
Movie name : euro14_4.mp4
Writing application : Lavf52.108.0

Video
ID : 1
Format : MPEG-4 Visual
Format profile : Simple@L1
Format settings, BVOP : No
Format settings, QPel : No
Format settings, GMC : No warppoints
Format settings, Matrix : Default (H.263)
Codec ID : 20
Duration : 47mn 13s
Bit rate mode : Variable
Bit rate : 2 287 Kbps
Maximum bit rate : 9 500 Kbps
Width : 720 pixels
Height : 480 pixels
Display aspect ratio : 3:2
Frame rate mode : Constant
Frame rate : 25.000 fps
Standard : NTSC
Color space : YUV
Chroma subsampling : 4:2:0
Bit depth : 8 bits
Scan type : Progressive
Compression mode : Lossy
Bits/(Pixel*Frame) : 0.265
Stream size : 772 MiB (96%)
Writing library : Lavc52.94.3

Audio
ID : 2
Format : AAC
Format/Info : Advanced Audio Codec
Format profile : LC
Codec ID : 40
Duration : 47mn 13s
Bit rate mode : Variable
Bit rate : 96.0 Kbps
Maximum bit rate : 128 Kbps
Channel(s) : 2 channels
Channel positions : Front: L R
Sampling rate : 48.0 KHz
Compression mode : Lossy
Delay relative to video : -1s 1ms
Stream size : 32.4 MiB (4%)
pb.wtf



pack Скачать через торрент http://i27.fastpic.ru/big/2012/0330/af/1845a3bc48a38a36df131da116e9ceaf.jpg Скачать фильм [AndreaNobiliProductions] Thayssa через торрент бесплантно в хорошем качестве Описание: Body cream, whipped cream...any excuse is good to suck cocks! ... 5 10 1
Info! Золотая раздача, скачанное не засчитывается.
Торрент: Зарегистрирован [2012-04-28 10:35] · скачан: 51 раз
Статус: √ проверено
Размер: 807 MB
Как cкачать? Как скачать через торрент | UTorrent

28-11-2019 20:33  

Отключить всю рекламу на сайте

    Дорогой пользователь! Огромная просьба, поблагодарите релизера, оцените раздачу и оставьте свои комментарий, если Вы скачали через торрент бесплатно! Внесите свою лепту в развитие PiratBit!
    Комментировать посты могут только пользователи прошедшие не сложную регистрацию
    Показать сообщения:    

    через торрент
    Скачать бесплатно
    скачать торрент
    смотреть онлайн
    Cкачать фильм бесплатно
    скачать торрент в хорошем качестве
    смотреть онлайн бесплатно в хорошем качестве


    Вы не можете начинать темы
    Вы не можете отвечать на сообщения
    Вы не можете редактировать свои сообщения
    Вы не можете удалять свои сообщения
    Вы не можете голосовать в опросах
    Вы не можете прикреплять файлы к сообщениям
    Вы можете скачивать файлы