Ссылка на приватное зеркало всего за 1$. Внимание количество ограничено!!!

OK

1+1

iTunes

мы

OK

1

WEB-DLRip

Джокер

Пифагор

Ведьмак / The Witcher сериал

Лицензия

ПШазам

ОК

Оно 2

iTunes

30
pack

Вам бонус

ВАЖНО

!!Акция!!

Alien_RageХит недели

RePack

Resident Evil 21

ИГРА 18+

pack

RePack

jed

!!Акция!!

Alien_Rage

RePack

fifa19

RePack

Assassins Creed: Odyssey

RePack

NEED FOR SPEED™ PAYBACK

4 сезон

9 сезон

Бесстыжие 9 сезон

Все сериалы

все сериалы на PB.wtf

RePack

FAR CRY 5
  

Индиана Джонс: В поисках утраченного ковчега / Raiders of the Lost Ark (Стивен Спилберг) [1981 г., боевик, приключения, HDTVRip, Профессиональный (многоголосый)] pb.wtf

Индиана Джонс: В поисках утраченного ковчега через торрент pb.wtf

Размер: 2.05 GB | Добавлен: 7 лет 8 мес. назад | Торрент скачан:254 раза
Скачать  

29-04-2012 04:34 Индиана Джонс: В поисках утраченного ковчега Скачать торрент  

Индиана Джонс: В поисках утраченного ковчега / Raiders of the Lost Ark

Год выпуска: 1981
Страна: США
Жанр: боевик, приключения
Продолжительность: 01:55:13
Перевод: Профессиональный (многоголосый)

Режиссер: Стивен Спилберг
Продюссер: Фрэнк Маршалл, Ховард Дж. Казанян, Джордж Лукас
Сценарий: Лоуренс Кэздан, Джордж Лукас, Филип Кауфман

Бюджет: $18 000 000
Премьера в мире: 12 июня 1981

RG-рекомендуется присутствие родителей
Мировой рейтинг IMDB 8.70 (327 018)


В ролях: Харрисон Форд, Карен Аллен, Пол Фримен, Рональд Лейси, Джон Рис-Дэвис, Денхолм Эллиот, Альфред Молина, Вольф Калер, Энтони Хиггинс, Вик Тэблиан

Описание: Известный археолог и специалист по оккультным наукам доктор Джонс получает опасное задание от правительства США. Он должен отправиться на поиски уникальной реликвии — священного Ковчега. Но Индиана и не подозревает, что аналогичный приказ уже получили тайные агенты Адольфа Гитлера...Этим потрясающим фильмом продюсер Джордж Лукас и режиссер Стивен Спилберг положили начало саги о странствиях благородного доктора Джонса по всевозможным уголкам земного шара.

Качество: HDTVRip
Формат: AVI
Видео кодек: XviD
Аудио кодек: AC3
Видео: 2 086 Kbps, 720 pixels х 304 pixels, 23.976 fps, Bits/Pixel : 0.397
Аудио: 448 Kbps, 6 channels, 48.0 KHz


Format : AVI
Format/Info : Audio Video Interleave
Format profile : OpenDML
File size : 2.05 GiB
Duration : 1h 55mn
Overall bit rate : 2 546 Kbps
Writing application : VirtualDubMod 1.5.10.3 | www.virtualdub-fr.org || (build 2550/release)
Writing library : VirtualDubMod build 2550/release

Video
ID : 0
Format : MPEG-4 Visual
Format profile : Advanced Simple@L5
Format settings, BVOP : 1
Format settings, QPel : No
Format settings, GMC : No warppoints
Format settings, Matrix : Default (MPEG)
Codec ID : XVID
Codec ID/Hint : XviD
Duration : 1h 55mn
Bit rate : 2 086 Kbps
Width : 720 pixels
Height : 304 pixels
Display aspect ratio : 2.35:1
Frame rate : 23.976 fps
Color space : YUV
Chroma subsampling : 4:2:0
Bit depth : 8 bits
Scan type : Progressive
Compression mode : Lossy
Bits/(Pixel*Frame) : 0.397
Stream size : 1.68 GiB (82%)
Writing library : XviD 1.2.1 (UTC 2008-12-04)

Audio
ID : 1
Format : AC-3
Format/Info : Audio Coding 3
Mode extension : CM (complete main)
Codec ID : 2000
Duration : 1h 55mn
Bit rate mode : Constant
Bit rate : 448 Kbps
Channel(s) : 6 channels
Channel positions : Front: L C R, Side: L R, LFE
Sampling rate : 48.0 KHz
Bit depth : 16 bits
Compression mode : Lossy
Stream size : 369 MiB (18%)
Alignment : Split accross interleaves
Interleave, duration : 42 ms (1.00 video frame)
Interleave, preload duration : 500 ms






pb.wtf



Скачать Индиана Джонс: В поисках утраченного ковчега через торрент http://pic.kartinco.top/images/2000/kec7rc419n.jpg Скачать фильм Индиана Джонс: В поисках утраченного ковчега через торрент бесплантно в хорошем качестве Описание: Известный археолог и специалист по оккультным наукам доктор Джонс получает опасное задание от правительства США. Он должен ... 9.8 10 5
Info! Золотая раздача, скачанное не засчитывается.
Торрент: Зарегистрирован [2012-04-29 04:34] · скачан: 254 раз
Статус: √ проверено
Размер: 2.05 GB
Как cкачать? Как скачать Индиана Джонс: В поисках утраченного ковчега через торрент | qTorrent

% Раздел Тема Автор DL S | L
Фильмы [HD 720p, 1080p] (Хороший звук DUB, MVO) [ 14.62 GB ] Индиана Джонс: В поисках утраченного ковчега / Raiders of the Lost Ark [1981 BDRip-HEVC 1080p от KORSAR][5xMVO + DVO + 8xAVO] HollySmoke Скачать
2 | 0
Фильмы с авторской озвучкой [ 2.34 GB ] Индиана Джонс: В поисках утраченного ковчега / Indiana Jones: Raiders of the Lost Ark [1981 BDRip] 3x[AVO] + [Orig Eng] + Sub killermax2013 Скачать
1 | 0

28-11-2019 20:33  

Отключить всю рекламу на сайте

01-11-2019 17:09 Индиана Джонс: В поисках утраченного ковчега Скачать торрент  

спс!!!!!!!!!!!!!!!!!!!!pb.wtf



    Дорогой пользователь! Огромная просьба, поблагодарите релизера, оцените раздачу и оставьте свои комментарий, если Вы скачали Индиана Джонс: В поисках утраченного ковчега через торрент бесплатно! Внесите свою лепту в развитие PiratBit!
    Комментировать посты могут только пользователи прошедшие не сложную регистрацию
    Показать сообщения:    

    Индиана Джонс: В поисках утраченного ковчега через торрент
    Скачать бесплатно Индиана Джонс: В поисках утраченного ковчега
    Индиана Джонс: В поисках утраченного ковчега скачать торрент
    Индиана Джонс: В поисках утраченного ковчега смотреть онлайн
    Cкачать фильм Индиана Джонс: В поисках утраченного ковчега бесплатно
    Индиана Джонс: В поисках утраченного ковчега скачать торрент в хорошем качестве
    Индиана Джонс: В поисках утраченного ковчега смотреть онлайн бесплатно в хорошем качестве


    Вы не можете начинать темы
    Вы не можете отвечать на сообщения
    Вы не можете редактировать свои сообщения
    Вы не можете удалять свои сообщения
    Вы не можете голосовать в опросах
    Вы не можете прикреплять файлы к сообщениям
    Вы можете скачивать файлы