новый адрес пиратбит piratbit
MEGA NEWS Получи личный уникальный адрес сайта и защити себя от блокировок. Внимание количество ограничено!!!

iTunes

1+1

iTunes

мы

iTunes

1

iTunes

Чернобыль

iTunes

Ральф против интернета

Лицензия

ПШазам

Лицензия

Игра престолов

Лицензия

30
pack

ВАЖНО

!!Акция!!

Alien_RageХит недели

RePack

Resident Evil 21

ИГРА 18+

pack

RePack

Metro:Exodus

!!Акция!!

Alien_Rage

RePack

fifa19

RePack

Assassins Creed: Odyssey

RePack

NEED FOR SPEED™ PAYBACK

3 сезон

9 сезон

Бесстыжие 9 сезон

Все сериалы

все сериалы на PB.wtf

RePack

FAR CRY 5
Ребята, катастрофически не хватает 1900р. для оплаты серверов за АВГУСТ (всвязи с блокировками трафик упал в 3 раза), 1-2р., выручайте.
  

Телохранитель / The Bodyguard (Мик Джексон) [1992 г., триллер, драма, мелодрама, музыка, BDRip (720p), DUB + Оригинал+Ukr+AVO] pb.wtf

Телохранитель через торрент pb.wtf

Размер: 12.25 GB | Добавлен: 7 лет 5 мес. назад | Торрент скачан:0 раз
Скачать  

29-04-2012 10:49 Телохранитель Скачать торрент  


Памяти Великой Уитни
Телохранитель / The Bodyguard
«Ни на миг не упускать ее из вида. Ни на секунду не терять бдительность. Не позволить себе в нее влюбиться.»
Год выпуска: 1992
Страна: США
Жанр: триллер, драма, мелодрама, музыка
Продолжительность: 02:09:20
Перевод: Дубляж + Оригинал

Режиссер: Мик Джексон

В ролях: Кевин Костнер, Уитни Хьюстон, Гари Кемп, Билл Коббс, Ральф Уэйт, Томас Арана, Мишель Ламар Ричардс, Майк Старр, Кристофер Бирт, Девон Никсон

Описание: Фрэнк Фармер, сотрудник службы безопасности президента Рейгана, чувствует себя отчасти виновным в том, что в его отсутствие на президента было совершено покушение. Он покидает службу и за большой гонорар, но все же нехотя, нанимается телохранителем чернокожей певицы и актрисы Рэйчел Мэррон, которая постоянно получает письма с угрозами.

Первоначальная антипатия, возникшая между ними, постепенно перерастает в любовь. Сложившаяся ситуация мешает телохранителю исполнять свой профессиональный долг, что приводит к частым конфликтам между Фрэнком и Рэйчел… Фармер приходит к выводу, что угроза жизни Рэйчел исходит отнюдь не от психопата, а от профессионального убийцы.


Качество: BDRip (720p)
Формат: MKV
Видео кодек: Другой MPEG4
Аудио кодек: AC3,DTS
Видео: 1280x720 at 23.976 fps, x264@L4.1, crf18, ~8738 kbps avg
Аудио#1: Russian: 48 kHz, AC3, 3/2 (L,C,R,l,r) + LFE ch, ~640.00 kbps avg |Дубляж CEE|
Аудио#2: Ukrainian: 48 kHz, AC3, 2/0 (L,R) ch, ~192.00 kbps avg |Двухголосый закадровый, 1+1|
Аудио#3: Russian: 48 kHz, DTS, 3/2 (L,C,R,l,r) + LFE ch, ~768.00 kbps avg|Одноголосый закадровый, Ю.Живов|
Аудио#4: English: 48 kHz, DTS, 3/2 (L,C,R,l,r) + LFE ch, ~768.00 kbps avg
Субтитры:Russian, English

General
Unique ID : 215451932728910832929753094237682876621 (0xA216886AF2422C9D9B4090031F5F40CD)
Complete name : D:\We.Bought.A.Zoo.2011.D.BDRip.1080p.IRONCLUB.mkv
Format : Matroska
File size : 14.6 GiB
Duration : 2h 3mn
Overall bit rate : 16.9 Mbps
Movie name : Мы Купили Зоопарк / We Bought A Zoo (2011) .....:::IRONCLUB:::..... [JTR]
Encoded date : UTC 2012-04-27 23:23:32
Writing application : mkvmerge v5.5.0 ('Healer') built on Apr 6 2012 21:43:24
Writing library : libebml v1.2.3 + libmatroska v1.3.0

Video
ID : 1
Format : AVC
Format/Info : Advanced Video Codec
Format profile : High@L4.1
Format settings, CABAC : Yes
Format settings, ReFrames : 4 frames
Codec ID : V_MPEG4/ISO/AVC
Duration : 2h 3mn
Bit rate : 13.5 Mbps
Width : 1 920 pixels
Height : 1 040 pixels
Display aspect ratio : 16:9
Frame rate : 23.976 fps
Color space : YUV
Chroma subsampling : 4:2:0
Bit depth : 8 bits
Scan type : Progressive
Bits/(Pixel*Frame) : 0.282
Stream size : 11.4 GiB (78%)
Title : We.Bought.A.Zoo.2011.1080p.Blu-ray.DTS.x264-ESiR
Writing library : x264 core 122 r2184 5c85e0a
Encoding settings : cabac=1 / ref=4 / deblock=1:-3:-3 / analyse=0x3:0x133 / me=tesa / subme=11 / psy=1 / psy_rd=1.05:0.10 / mixed_ref=1 / me_range=32 / chroma_me=1 / trellis=2 / 8x8dct=1 / cqm=0 / deadzone=21,11 / fast_pskip=0 / chroma_qp_offset=-3 / threads=6 / sliced_threads=0 / nr=0 / decimate=1 / interlaced=0 / bluray_compat=0 / constrained_intra=0 / bframes=16 / b_pyramid=2 / b_adapt=2 / b_bias=0 / direct=3 / weightb=1 / open_gop=0 / weightp=2 / keyint=250 / keyint_min=23 / scenecut=40 / intra_refresh=0 / rc_lookahead=60 / rc=2pass / mbtree=1 / bitrate=13500 / ratetol=1.0 / qcomp=0.60 / qpmin=0 / qpmax=69 / qpstep=4 / cplxblur=20.0 / qblur=0.5 / ip_ratio=1.40 / aq=2:0.80
Language : English

Audio #1
ID : 2
Format : AC-3
Format/Info : Audio Coding 3
Mode extension : CM (complete main)
Codec ID : A_AC3
Duration : 2h 3mn
Bit rate mode : Constant
Bit rate : 640 Kbps
Channel(s) : 6 channels
Channel positions : Front: L C R, Side: L R, LFE
Sampling rate : 48.0 KHz
Bit depth : 16 bits
Compression mode : Lossy
Stream size : 567 MiB (4%)
Title : AC3 5.1 @ 640 kb/s [Russian DUB, Blu-ray EUR]
Language : Russian

Audio #2
ID : 3
Format : DTS
Format/Info : Digital Theater Systems
Codec ID : A_DTS
Duration : 2h 3mn
Bit rate mode : Constant
Bit rate : 755 Kbps
Channel(s) : 6 channels
Channel positions : Front: L C R, Side: L R, LFE
Sampling rate : 48.0 KHz
Bit depth : 24 bits
Compression mode : Lossy
Stream size : 669 MiB (4%)
Title : DTS 5.1 @ 755 kb/s [Russian DUB, Blu-ray EUR]
Language : Russian

Audio #3
ID : 4
Format : AC-3
Format/Info : Audio Coding 3
Mode extension : CM (complete main)
Codec ID : A_AC3
Duration : 2h 3mn
Bit rate mode : Constant
Bit rate : 448 Kbps
Channel(s) : 6 channels
Channel positions : Front: L C R, Side: L R, LFE
Sampling rate : 48.0 KHz
Bit depth : 16 bits
Compression mode : Lossy
Stream size : 397 MiB (3%)
Title : AC3 5.1 @ 448 kb/s [Ukrainian DUB, Blu-ray EUR]
Language : Ukrainian

Audio #4
ID : 5
Format : DTS
Format/Info : Digital Theater Systems
Codec ID : A_DTS
Duration : 2h 3mn
Bit rate mode : Constant
Bit rate : 1 510 Kbps
Channel(s) : 6 channels
Channel positions : Front: L C R, Side: L R, LFE
Sampling rate : 48.0 KHz
Bit depth : 24 bits
Compression mode : Lossy
Stream size : 1.31 GiB (9%)
Title : DTS 5.1 @ 1510 kb/s [English]
Language : English

Text #1
ID : 6
Format : UTF-8
Codec ID : S_TEXT/UTF8
Codec ID/Info : UTF-8 Plain Text
Title : Russian
Language : Russian

Text #2
ID : 7
Format : UTF-8
Codec ID : S_TEXT/UTF8
Codec ID/Info : UTF-8 Plain Text
Title : English
Language : English

Menu
00:00:00.000 : en:00:00:00.000
00:04:35.150 : en:00:04:35.150
00:08:08.238 : en:00:08:08.238
00:11:03.496 : en:00:11:03.496
00:14:33.873 : en:00:14:33.873
00:16:50.509 : en:00:16:50.509
00:21:23.699 : en:00:21:23.699
00:24:29.051 : en:00:24:29.051
00:26:37.429 : en:00:26:37.429
00:30:45.260 : en:00:30:45.260
00:35:46.895 : en:00:35:46.895
00:40:48.696 : en:00:40:48.696
00:44:19.949 : en:00:44:19.949
00:47:20.087 : en:00:47:20.087
00:50:14.303 : en:00:50:14.303
00:56:31.888 : en:00:56:31.888
01:00:10.190 : en:01:00:10.190
01:03:01.987 : en:01:03:01.987
01:07:29.671 : en:01:07:29.671
01:11:31.287 : en:01:11:31.287
01:15:40.411 : en:01:15:40.411
01:19:30.307 : en:01:19:30.307
01:24:01.578 : en:01:24:01.578
01:26:47.911 : en:01:26:47.911
01:30:31.426 : en:01:30:31.426
01:34:01.177 : en:01:34:01.177
01:37:34.307 : en:01:37:34.307
01:44:03.028 : en:01:44:03.028
01:48:26.250 : en:01:48:26.250
01:52:46.385 : en:01:52:46.385
01:55:57.701 : en:01:55:57.701
01:58:56.004 : en:01:58:56.004

pb.wtf



Скачать Телохранитель через торрент http://s019.radikal.ru/i608/1204/2c/7e969cf029cf.jpg Скачать фильм Телохранитель через торрент бесплантно в хорошем качестве Описание: Фрэнк Фармер, сотрудник службы безопасности президента Рейгана, чувствует себя отчасти виновным в том, что в его отсутствие на ... 10 10 3
Info! Золотая раздача, скачанное не засчитывается.
Торрент: Зарегистрирован [2012-04-29 10:49] · скачан: 0 раз
Статус: √ проверено
Размер: 12.25 GB
Как cкачать? Как скачать Телохранитель через торрент | qTorrent



Последний раз редактировалось: ~Relizer~ (2012-04-29 11:10), всего редактировалось 4 раз(а)


>> Регистрируемся здесь <<






Отзывы и комментарии о схеме читаем и пишем здесь: ---> Отзывы и комментарии о схеме

Новые благодарочки в телеграм довольных пользователей:
скриншот   скриншот   скриншот   скриншот   скриншот

29-04-2012 11:05 Телохранитель Скачать торрент  


Под ее песни танцевали, грустили, женились, отмечали дни рождения. Уитни Хьюстон до сих пор удерживает рекорд, зафиксированный в Книге рекордов Гиннеса, 415 профессиональных наград и премий. Среди них 6 суперпрестижных Грэмми. Кажется все, за что она бралась, было обречено на успех. Ее первая работа в кино, фильм «Телохранитель», в начале 90 собрал по всюду в мире 410 миллионов долларов. Главная мелодия в картине «I Will Always Love You» была написана другой американской певицей Доли Партенс. Уитни Хьюстон сделала эту песню своим фирменным хитом.



Выражается особая благодарность HDClub
Дорожки 2-7 - результат колоссального труда Slimka
Дорожки №3,5 получены путем наложения чистых голосов на центр декодированного DTS-HD MA 5.1 и последующего кодирования в DTS 768.
Дорожки №2,4 получены путём наложения отфильтрованных и аккуратно вырезанных с исходников реплик на фронтальную тройку каналов декодированного DTS-HD MA 5.1; последующий даунмикс в "квадро+lfe" выполнен ввиду технически более грамотного маскирования оставшихся под репликами фрагментов исходников.
За исходники чистых голосов спасибо sergey_n. Исходник с переводом В.Горчакова взят с раздачи nevermnd_2k. Исходник с переводом НТВ+ взят с раздачи anton966. Большое им спасибо. Отдельная благодарность viktor1986t за недостающий фрагмент перевода НТВ+ на 61-ой минуте. За украинскую дорожку №7 большое спасибо восвобода. За раритетную VHS-дорогу № 6 в отличном качестве большое спасибо kiruxa-k. Автор опознан, как некий "весельчак". Никакой другой информации получить не удалось.
Над каждой дорожкой, чистыми и выделенными репликами проделана большая работа по реставрации и "освежению" за исключением дороги №7, где модное на ТВ повышение уровня фона в паузах в большинстве случаев оставлено как есть.
В преддверии вопросов, почему нет других дорожек - другие существующие и имеющиеся в сети дороги к фильму не удовлетворяли ни по качеству, ни по переводу.

Уитни Хьюстон
pb.wtf



05-07-2012 09:45 Телохранитель Скачать торрент  

А разве это наше кино ???pb.wtf



    Дорогой пользователь! Огромная просьба, поблагодарите релизера, оцените раздачу и оставьте свои комментарий, если Вы скачали Телохранитель через торрент бесплатно! Внесите свою лепту в развитие PiratBit!
    Комментировать посты могут только пользователи прошедшие не сложную регистрацию
    Показать сообщения:    

    Телохранитель через торрент
    Скачать бесплатно Телохранитель
    Телохранитель скачать торрент
    Телохранитель смотреть онлайн
    Cкачать фильм Телохранитель бесплатно
    Телохранитель скачать торрент в хорошем качестве
    Телохранитель смотреть онлайн бесплатно в хорошем качестве


    Вы не можете начинать темы
    Вы не можете отвечать на сообщения
    Вы не можете редактировать свои сообщения
    Вы не можете удалять свои сообщения
    Вы не можете голосовать в опросах
    Вы не можете прикреплять файлы к сообщениям
    Вы можете скачивать файлы